HDTV Fifth Harmony - Caldeirão do Huck 2016 (HDTV-1080i)-HDMania

NCURBAN

Well-Known Member
Administrative
May 25, 2016
3,347
3,595
113
Fifth Harmony - Caldeirão do Huck 2016 (HDTV-1080i)-HDMania


Setlist:
  1. Worth It
  2. All In My Head (Flex)
  3. Work from Home
Code:
Format                                   : MPEG-TS
File size                                : 6.24 GiB
Duration                                 : 56mn 17s
Overall bit rate mode                    : Variable
Overall bit rate                         : 15.9 Mbps

Video
ID                                       : 273 (0x111)
Menu ID                                  : 504 (0x1F8)
Format                                   : AVC
Format/Info                              : Advanced Video Codec
Format profile                           : High@L4
Format settings, CABAC                   : Yes
Format settings, ReFrames                : 2 frames
Format settings, GOP                     : M=3, N=15
Codec ID                                 : 27
Duration                                 : 56mn 17s
Bit rate mode                            : Variable
Maximum bit rate                         : 24.0 Mbps
Width                                    : 1 920 pixels
Height                                   : 1 080 pixels
Display aspect ratio                     : 16:9
Frame rate                               : 29.970 fps
Color space                              : YUV
Chroma subsampling                       : 4:2:0
Bit depth                                : 8 bits
Scan type                                : Interlaced
Scan order                               : Top Field First
Color range                              : Limited
Color primaries                          : BT.709
Transfer characteristics                 : BT.709
Matrix coefficients                      : BT.709

Audio #1
ID                                       : 274 (0x112)
Menu ID                                  : 504 (0x1F8)
Format                                   : AAC
Format/Info                              : Advanced Audio Codec
Format profile                           : HE-AAC / LC
Muxing mode                              : LATM
Codec ID                                 : 17
Duration                                 : 56mn 17s
Bit rate mode                            : Variable
Channel(s)                               : 2 channels
Channel positions                        : Front: L R
Sampling rate                            : 48.0 KHz / 24.0 KHz
Compression mode                         : Lossy
Language                                 : Portuguese

Audio #2
ID                                       : 275 (0x113)
Menu ID                                  : 504 (0x1F8)
Format                                   : AC-3
Format/Info                              : Audio Coding 3
Mode extension                           : CM (complete main)
Format settings, Endianness              : Big
Codec ID                                 : 6
Duration                                 : 56mn 17s
Bit rate mode                            : Constant
Bit rate                                 : 640 Kbps
Channel(s)                               : 6 channels
Channel positions                        : Front: L C R, Side: L R, LFE
Sampling rate                            : 48.0 KHz
Compression mode                         : Lossy
Stream size                              : 258 MiB (4%)
Language                                 : English

Audio #3
ID                                       : 276 (0x114)
Menu ID                                  : 504 (0x1F8)
Format                                   : AAC
Format/Info                              : Advanced Audio Codec
Format profile                           : HE-AAC / LC
Muxing mode                              : LATM
Codec ID                                 : 17
Duration                                 : 56mn 17s
Bit rate mode                            : Variable
Channel(s)                               : 2 channels
Channel positions                        : Front: L R
Sampling rate                            : 48.0 KHz / 24.0 KHz
Compression mode                         : Lossy
Language                                 : des

Audio #4
ID                                       : 277 (0x115)
Menu ID                                  : 504 (0x1F8)
Format                                   : AC-3
Format/Info                              : Audio Coding 3
Mode extension                           : CM (complete main)
Format settings, Endianness              : Big
Codec ID                                 : 6
Duration                                 : 56mn 17s
Bit rate mode                            : Constant
Bit rate                                 : 640 Kbps
Channel(s)                               : 6 channels
Channel positions                        : Front: L C R, Side: L R, LFE
Sampling rate                            : 48.0 KHz
Compression mode                         : Lossy
Stream size                              : 258 MiB (4%)
Language                                 : 5.1

Download
[HIDE-REPLY]MEGA[/HIDE-REPLY]