ProRes Fifth Harmony - I'm In Love With A Monster (LPCM-ProRes-Master-1080p)

NCURBAN

Well-Known Member
Administrative
May 25, 2016
3,360
4,184
113
Fifth Harmony - I'm In Love With A Monster (LPCM-ProRes-Master-1080p)



Genre: Pop
Released: Aug 29, 2015
℗ (C) 2015 Simco Ltd. under exclusive license to Epic Records, a division of Sony Music Entertainment

Code:
Format                                   : QuickTime
Format/Info                              : Original Apple specifications
File size                                : 4.37 GiB
Duration                                 : 3mn 57s
Overall bit rate mode                    : Variable
Overall bit rate                         : 158 Mbps
Encoded date                             : UTC 2015-08-28 04:38:47
Tagged date                              : UTC 2015-08-28 04:43:00
Writing library                          : Apple QuickTime
Media/UUID                               : 892DABDC-14EE-4B45-81D1-33B0A212F250

Video
ID                                       : 1
Format                                   : ProRes
Format version                           : Version 0
Format profile                           : 422 HQ
Codec ID                                 : apch
Duration                                 : 3mn 57s
Source duration                          : 3mn 58s
Source_Duration_FirstFrame               : 122ms
Bit rate mode                            : Variable
Bit rate                                 : 156 Mbps
Width                                    : 1 920 pixels
Height                                   : 1 080 pixels
Display aspect ratio                     : 16:9
Frame rate mode                          : Constant
Frame rate                               : 23.976 fps
Color space                              : YUV
Chroma subsampling                       : 4:2:2
Scan type                                : Progressive
Bits/(Pixel*Frame)                       : 3.132
Stream size                              : 4.31 GiB (99%)
Source stream size                       : 4.31 GiB (99%)
Writing library                          : Apple
Language                                 : English
Encoded date                             : UTC 2015-08-28 04:42:59
Tagged date                              : UTC 2015-08-28 04:43:00
Color primaries                          : BT.709
Transfer characteristics                 : BT.709
Matrix coefficients                      : BT.709
matrix_coefficients_Original             : BT.709

Audio
ID                                       : 4
Format                                   : PCM
Format settings, Endianness              : Little
Format settings, Sign                    : Unsigned
Codec ID                                 : in24
Duration                                 : 3mn 57s
Source duration                          : 3mn 58s
Bit rate mode                            : Constant
Bit rate                                 : 2 304 Kbps
Channel(s)                               : 2 channels
Channel positions                        : Front: L R
Sampling rate                            : 48.0 KHz
Bit depth                                : 24 bits
Stream size                              : 65.2 MiB (1%)
Source stream size                       : 65.6 MiB (1%)
Language                                 : English
Encoded date                             : UTC 2015-08-28 04:43:00
Tagged date                              : UTC 2015-08-28 04:43:00


Download
[HIDE-REPLY]MEGA[/HIDE-REPLY]
 
  • Like
Reactions: Darkbeats

Lords

Member
Registered
Jul 11, 2018
52
2
8
22
Fifth Harmony - I'm In Love With A Monster (LPCM-ProRes-Master-1080p)



Genre: Pop
Released: Aug 29, 2015
℗ (C) 2015 Simco Ltd. under exclusive license to Epic Records, a division of Sony Music Entertainment

Code:
Format                                   : QuickTime
Format/Info                              : Original Apple specifications
File size                                : 4.37 GiB
Duration                                 : 3mn 57s
Overall bit rate mode                    : Variable
Overall bit rate                         : 158 Mbps
Encoded date                             : UTC 2015-08-28 04:38:47
Tagged date                              : UTC 2015-08-28 04:43:00
Writing library                          : Apple QuickTime
Media/UUID                               : 892DABDC-14EE-4B45-81D1-33B0A212F250

Video
ID                                       : 1
Format                                   : ProRes
Format version                           : Version 0
Format profile                           : 422 HQ
Codec ID                                 : apch
Duration                                 : 3mn 57s
Source duration                          : 3mn 58s
Source_Duration_FirstFrame               : 122ms
Bit rate mode                            : Variable
Bit rate                                 : 156 Mbps
Width                                    : 1 920 pixels
Height                                   : 1 080 pixels
Display aspect ratio                     : 16:9
Frame rate mode                          : Constant
Frame rate                               : 23.976 fps
Color space                              : YUV
Chroma subsampling                       : 4:2:2
Scan type                                : Progressive
Bits/(Pixel*Frame)                       : 3.132
Stream size                              : 4.31 GiB (99%)
Source stream size                       : 4.31 GiB (99%)
Writing library                          : Apple
Language                                 : English
Encoded date                             : UTC 2015-08-28 04:42:59
Tagged date                              : UTC 2015-08-28 04:43:00
Color primaries                          : BT.709
Transfer characteristics                 : BT.709
Matrix coefficients                      : BT.709
matrix_coefficients_Original             : BT.709

Audio
ID                                       : 4
Format                                   : PCM
Format settings, Endianness              : Little
Format settings, Sign                    : Unsigned
Codec ID                                 : in24
Duration                                 : 3mn 57s
Source duration                          : 3mn 58s
Bit rate mode                            : Constant
Bit rate                                 : 2 304 Kbps
Channel(s)                               : 2 channels
Channel positions                        : Front: L R
Sampling rate                            : 48.0 KHz
Bit depth                                : 24 bits
Stream size                              : 65.2 MiB (1%)
Source stream size                       : 65.6 MiB (1%)
Language                                 : English
Encoded date                             : UTC 2015-08-28 04:43:00
Tagged date                              : UTC 2015-08-28 04:43:00



Download
***Hidden content cannot be quoted.***
thanks
 

Icaka03

Member
Registered
May 11, 2019
99
1
8
24
th
Fifth Harmony - I'm In Love With A Monster (LPCM-ProRes-Master-1080p)



Genre: Pop
Released: Aug 29, 2015
℗ (C) 2015 Simco Ltd. under exclusive license to Epic Records, a division of Sony Music Entertainment

Code:
Format                                   : QuickTime
Format/Info                              : Original Apple specifications
File size                                : 4.37 GiB
Duration                                 : 3mn 57s
Overall bit rate mode                    : Variable
Overall bit rate                         : 158 Mbps
Encoded date                             : UTC 2015-08-28 04:38:47
Tagged date                              : UTC 2015-08-28 04:43:00
Writing library                          : Apple QuickTime
Media/UUID                               : 892DABDC-14EE-4B45-81D1-33B0A212F250

Video
ID                                       : 1
Format                                   : ProRes
Format version                           : Version 0
Format profile                           : 422 HQ
Codec ID                                 : apch
Duration                                 : 3mn 57s
Source duration                          : 3mn 58s
Source_Duration_FirstFrame               : 122ms
Bit rate mode                            : Variable
Bit rate                                 : 156 Mbps
Width                                    : 1 920 pixels
Height                                   : 1 080 pixels
Display aspect ratio                     : 16:9
Frame rate mode                          : Constant
Frame rate                               : 23.976 fps
Color space                              : YUV
Chroma subsampling                       : 4:2:2
Scan type                                : Progressive
Bits/(Pixel*Frame)                       : 3.132
Stream size                              : 4.31 GiB (99%)
Source stream size                       : 4.31 GiB (99%)
Writing library                          : Apple
Language                                 : English
Encoded date                             : UTC 2015-08-28 04:42:59
Tagged date                              : UTC 2015-08-28 04:43:00
Color primaries                          : BT.709
Transfer characteristics                 : BT.709
Matrix coefficients                      : BT.709
matrix_coefficients_Original             : BT.709

Audio
ID                                       : 4
Format                                   : PCM
Format settings, Endianness              : Little
Format settings, Sign                    : Unsigned
Codec ID                                 : in24
Duration                                 : 3mn 57s
Source duration                          : 3mn 58s
Bit rate mode                            : Constant
Bit rate                                 : 2 304 Kbps
Channel(s)                               : 2 channels
Channel positions                        : Front: L R
Sampling rate                            : 48.0 KHz
Bit depth                                : 24 bits
Stream size                              : 65.2 MiB (1%)
Source stream size                       : 65.6 MiB (1%)
Language                                 : English
Encoded date                             : UTC 2015-08-28 04:43:00
Tagged date                              : UTC 2015-08-28 04:43:00



Download
***Hidden content cannot be quoted.***
thanks
 

vhugodd

New Member
Registered
Sep 11, 2019
11
0
1
21
om
Fifth Harmony - I'm In Love With A Monster (LPCM-ProRes-Master-1080p)



Genre: Pop
Released: Aug 29, 2015
℗ (C) 2015 Simco Ltd. under exclusive license to Epic Records, a division of Sony Music Entertainment

Code:
Format                                   : QuickTime
Format/Info                              : Original Apple specifications
File size                                : 4.37 GiB
Duration                                 : 3mn 57s
Overall bit rate mode                    : Variable
Overall bit rate                         : 158 Mbps
Encoded date                             : UTC 2015-08-28 04:38:47
Tagged date                              : UTC 2015-08-28 04:43:00
Writing library                          : Apple QuickTime
Media/UUID                               : 892DABDC-14EE-4B45-81D1-33B0A212F250

Video
ID                                       : 1
Format                                   : ProRes
Format version                           : Version 0
Format profile                           : 422 HQ
Codec ID                                 : apch
Duration                                 : 3mn 57s
Source duration                          : 3mn 58s
Source_Duration_FirstFrame               : 122ms
Bit rate mode                            : Variable
Bit rate                                 : 156 Mbps
Width                                    : 1 920 pixels
Height                                   : 1 080 pixels
Display aspect ratio                     : 16:9
Frame rate mode                          : Constant
Frame rate                               : 23.976 fps
Color space                              : YUV
Chroma subsampling                       : 4:2:2
Scan type                                : Progressive
Bits/(Pixel*Frame)                       : 3.132
Stream size                              : 4.31 GiB (99%)
Source stream size                       : 4.31 GiB (99%)
Writing library                          : Apple
Language                                 : English
Encoded date                             : UTC 2015-08-28 04:42:59
Tagged date                              : UTC 2015-08-28 04:43:00
Color primaries                          : BT.709
Transfer characteristics                 : BT.709
Matrix coefficients                      : BT.709
matrix_coefficients_Original             : BT.709

Audio
ID                                       : 4
Format                                   : PCM
Format settings, Endianness              : Little
Format settings, Sign                    : Unsigned
Codec ID                                 : in24
Duration                                 : 3mn 57s
Source duration                          : 3mn 58s
Bit rate mode                            : Constant
Bit rate                                 : 2 304 Kbps
Channel(s)                               : 2 channels
Channel positions                        : Front: L R
Sampling rate                            : 48.0 KHz
Bit depth                                : 24 bits
Stream size                              : 65.2 MiB (1%)
Source stream size                       : 65.6 MiB (1%)
Language                                 : English
Encoded date                             : UTC 2015-08-28 04:43:00
Tagged date                              : UTC 2015-08-28 04:43:00



Download
***Hidden content cannot be quoted.***
omg thanksss!
 

vuivlu

Member
Registered
Dec 24, 2019
32
0
6
20
Fifth Harmony - I'm In Love With A Monster (LPCM-ProRes-Master-1080p)



Genre: Pop
Released: Aug 29, 2015
℗ (C) 2015 Simco Ltd. under exclusive license to Epic Records, a division of Sony Music Entertainment

Code:
Format                                   : QuickTime
Format/Info                              : Original Apple specifications
File size                                : 4.37 GiB
Duration                                 : 3mn 57s
Overall bit rate mode                    : Variable
Overall bit rate                         : 158 Mbps
Encoded date                             : UTC 2015-08-28 04:38:47
Tagged date                              : UTC 2015-08-28 04:43:00
Writing library                          : Apple QuickTime
Media/UUID                               : 892DABDC-14EE-4B45-81D1-33B0A212F250

Video
ID                                       : 1
Format                                   : ProRes
Format version                           : Version 0
Format profile                           : 422 HQ
Codec ID                                 : apch
Duration                                 : 3mn 57s
Source duration                          : 3mn 58s
Source_Duration_FirstFrame               : 122ms
Bit rate mode                            : Variable
Bit rate                                 : 156 Mbps
Width                                    : 1 920 pixels
Height                                   : 1 080 pixels
Display aspect ratio                     : 16:9
Frame rate mode                          : Constant
Frame rate                               : 23.976 fps
Color space                              : YUV
Chroma subsampling                       : 4:2:2
Scan type                                : Progressive
Bits/(Pixel*Frame)                       : 3.132
Stream size                              : 4.31 GiB (99%)
Source stream size                       : 4.31 GiB (99%)
Writing library                          : Apple
Language                                 : English
Encoded date                             : UTC 2015-08-28 04:42:59
Tagged date                              : UTC 2015-08-28 04:43:00
Color primaries                          : BT.709
Transfer characteristics                 : BT.709
Matrix coefficients                      : BT.709
matrix_coefficients_Original             : BT.709

Audio
ID                                       : 4
Format                                   : PCM
Format settings, Endianness              : Little
Format settings, Sign                    : Unsigned
Codec ID                                 : in24
Duration                                 : 3mn 57s
Source duration                          : 3mn 58s
Bit rate mode                            : Constant
Bit rate                                 : 2 304 Kbps
Channel(s)                               : 2 channels
Channel positions                        : Front: L R
Sampling rate                            : 48.0 KHz
Bit depth                                : 24 bits
Stream size                              : 65.2 MiB (1%)
Source stream size                       : 65.6 MiB (1%)
Language                                 : English
Encoded date                             : UTC 2015-08-28 04:43:00
Tagged date                              : UTC 2015-08-28 04:43:00



Download
***Hidden content cannot be quoted.***
Thank You!