HDTV Fifth Harmony - Z100 iHeart Radio Jingle Ball 2016 [HDTV-1080i]-ALANiS

NCURBAN

Well-Known Member
Administrative
May 25, 2016
3,360
4,183
113
Fifth Harmony - Z100 iHeart Radio Jingle Ball 2016 [HDTV-1080i]-ALANiS


Gener: Pop
Tour: Z100 iHeart Radio Jingle Ball
At: Madison Square Garden, New York, NY, USA
Date:
Setlist:
  1. That's My Girl
  2. All in My Head (Flex)
  3. Worth It
  4. Work from Home
Code:
Format                                   : MPEG-TS
File size                                : 442 MiB
Duration                                 : 16 min 18 s
Overall bit rate mode                    : Variable
Overall bit rate                         : 3 793 kb/s

Video
ID                                       : 481 (0x1E1)
Menu ID                                  : 1 (0x1)
Format                                   : AVC
Format/Info                              : Advanced Video Codec
Format profile                           : High@L4
Format settings, CABAC                   : Yes
Format settings, ReFrames                : 3 frames
Format settings, GOP                     : M=3, N=15
Codec ID                                 : 27
Duration                                 : 16 min 18 s
Bit rate mode                            : Constant
Bit rate                                 : 3 400 kb/s
Width                                    : 1 920 pixels
Height                                   : 1 080 pixels
Display aspect ratio                     : 16:9
Frame rate                               : 29.970 (30000/1001) FPS
Color space                              : YUV
Chroma subsampling                       : 4:2:0
Bit depth                                : 8 bits
Scan type                                : Interlaced
Scan type, store method                  : Separated fields
Scan order                               : Top Field First
Bits/(Pixel*Frame)                       : 0.055
Stream size                              : 398 MiB (90%)
Color range                              : Limited
Color primaries                          : BT.709
Transfer characteristics                 : BT.709
Matrix coefficients                      : BT.709

Audio
ID                                       : 482 (0x1E2)
Menu ID                                  : 1 (0x1)
Format                                   : MPEG Audio
Format version                           : Version 1
Format profile                           : Layer 2
Codec ID                                 : 3
Duration                                 : 16 min 18 s
Bit rate mode                            : Constant
Bit rate                                 : 192 kb/s
Channel(s)                               : 2 channels
Sampling rate                            : 48.0 kHz
Compression mode                         : Lossy
Delay relative to video                  : -33 ms
Stream size                              : 22.4 MiB (5%)
Language                                 : English
Download
You must reply before you can see the hidden data contained here.
 

RUNE

Member
Registered
Aug 17, 2016
50
0
6
42
Fifth Harmony - Z100 iHeart Radio Jingle Ball 2016 [HDTV-1080i]-ALANiS


Setlist:

  1. That's My Girl
    All in My Head (Flex)
    Worth It
    Work from Home
Code:
Format                                   : MPEG-TS
File size                                : 442 MiB
Duration                                 : 16 min 18 s
Overall bit rate mode                    : Variable
Overall bit rate                         : 3 793 kb/s

Video
ID                                       : 481 (0x1E1)
Menu ID                                  : 1 (0x1)
Format                                   : AVC
Format/Info                              : Advanced Video Codec
Format profile                           : High@L4
Format settings, CABAC                   : Yes
Format settings, ReFrames                : 3 frames
Format settings, GOP                     : M=3, N=15
Codec ID                                 : 27
Duration                                 : 16 min 18 s
Bit rate mode                            : Constant
Bit rate                                 : 3 400 kb/s
Width                                    : 1 920 pixels
Height                                   : 1 080 pixels
Display aspect ratio                     : 16:9
Frame rate                               : 29.970 (30000/1001) FPS
Color space                              : YUV
Chroma subsampling                       : 4:2:0
Bit depth                                : 8 bits
Scan type                                : Interlaced
Scan type, store method                  : Separated fields
Scan order                               : Top Field First
Bits/(Pixel*Frame)                       : 0.055
Stream size                              : 398 MiB (90%)
Color range                              : Limited
Color primaries                          : BT.709
Transfer characteristics                 : BT.709
Matrix coefficients                      : BT.709

Audio
ID                                       : 482 (0x1E2)
Menu ID                                  : 1 (0x1)
Format                                   : MPEG Audio
Format version                           : Version 1
Format profile                           : Layer 2
Codec ID                                 : 3
Duration                                 : 16 min 18 s
Bit rate mode                            : Constant
Bit rate                                 : 192 kb/s
Channel(s)                               : 2 channels
Sampling rate                            : 48.0 kHz
Compression mode                         : Lossy
Delay relative to video                  : -33 ms
Stream size                              : 22.4 MiB (5%)
Language                                 : English
Download
***Hidden content cannot be quoted.***
Thank U!