HDTV Green Day - 15th Bizarre Festival 2001 (HDTV-720p)

NCURBAN

Well-Known Member
Administrative
May 25, 2016
3,360
4,185
113
Green Day - 15th Bizarre Festival 2001 (HDTV-720p)


Setlist:
  1. Welcome to Paradise
  2. Hitchin' a Ride
  3. Brain Stew (Iron Man/Master of Puppets before)
  4. Jaded
  5. Longview
  6. Knowledge (Operation Ivy cover)
  7. Basket Case (same fan plays guitar)
  8. King for a Day
  9. Waiting
  10. Minority
  11. When I Come Around
  12. Good Riddance (Time of Your Life)
Code:
Format                                   : Matroska
Format version                           : Version 4 / Version 2
File size                                : 3.94 GiB
Duration                                 : 52mn 58s
Overall bit rate                         : 10.6 Mbps
Encoded date                             : UTC 2014-02-06 10:57:14
Writing application                      : mkvmerge v6.7.0 ('Back to the Ground') 64bit built on Jan  8 2014 15:10:52
Writing library                          : Lavf54.59.106

Video
ID                                       : 1
Format                                   : AVC
Format/Info                              : Advanced Video Codec
Format profile                           : High@L4
Format settings, CABAC                   : Yes
Format settings, ReFrames                : 4 frames
Codec ID                                 : V_MPEG4/ISO/AVC
Duration                                 : 52mn 58s
Bit rate                                 : 9 977 Kbps
Width                                    : 1 280 pixels
Height                                   : 720 pixels
Display aspect ratio                     : 16:9
Frame rate mode                          : Constant
Frame rate                               : 50.000 fps
Color space                              : YUV
Chroma subsampling                       : 4:2:0
Bit depth                                : 8 bits
Scan type                                : Progressive
Bits/(Pixel*Frame)                       : 0.217
Stream size                              : 3.69 GiB (94%)
Default                                  : Yes
Forced                                   : No

Audio
ID                                       : 2
Format                                   : AC-3
Format/Info                              : Audio Coding 3
Mode extension                           : CM (complete main)
Format settings, Endianness              : Big
Codec ID                                 : A_AC3
Duration                                 : 52mn 58s
Bit rate mode                            : Constant
Bit rate                                 : 448 Kbps
Channel(s)                               : 2 channels
Channel positions                        : Front: L R
Sampling rate                            : 48.0 KHz
Compression mode                         : Lossy
Delay relative to video                  : 154ms
Stream size                              : 170 MiB (4%)

Download
You must reply before you can see the hidden data contained here.
 
  • Like
Reactions: Verve

cjfx

New Member
Registered
Oct 23, 2017
6
0
1
21
Green Day - 15th Bizarre Festival 2001 (HDTV-720p)


Setlist:

  1. Welcome to Paradise
    Hitchin' a Ride
    Brain Stew (Iron Man/Master of Puppets before)
    Jaded
    Longview
    Knowledge (Operation Ivy cover)
    Basket Case (same fan plays guitar)
    King for a Day
    Waiting
    Minority
    When I Come Around
    Good Riddance (Time of Your Life)
Code:
Format                                   : Matroska
Format version                           : Version 4 / Version 2
File size                                : 3.94 GiB
Duration                                 : 52mn 58s
Overall bit rate                         : 10.6 Mbps
Encoded date                             : UTC 2014-02-06 10:57:14
Writing application                      : mkvmerge v6.7.0 ('Back to the Ground') 64bit built on Jan  8 2014 15:10:52
Writing library                          : Lavf54.59.106

Video
ID                                       : 1
Format                                   : AVC
Format/Info                              : Advanced Video Codec
Format profile                           : High@L4
Format settings, CABAC                   : Yes
Format settings, ReFrames                : 4 frames
Codec ID                                 : V_MPEG4/ISO/AVC
Duration                                 : 52mn 58s
Bit rate                                 : 9 977 Kbps
Width                                    : 1 280 pixels
Height                                   : 720 pixels
Display aspect ratio                     : 16:9
Frame rate mode                          : Constant
Frame rate                               : 50.000 fps
Color space                              : YUV
Chroma subsampling                       : 4:2:0
Bit depth                                : 8 bits
Scan type                                : Progressive
Bits/(Pixel*Frame)                       : 0.217
Stream size                              : 3.69 GiB (94%)
Default                                  : Yes
Forced                                   : No

Audio
ID                                       : 2
Format                                   : AC-3
Format/Info                              : Audio Coding 3
Mode extension                           : CM (complete main)
Format settings, Endianness              : Big
Codec ID                                 : A_AC3
Duration                                 : 52mn 58s
Bit rate mode                            : Constant
Bit rate                                 : 448 Kbps
Channel(s)                               : 2 channels
Channel positions                        : Front: L R
Sampling rate                            : 48.0 KHz
Compression mode                         : Lossy
Delay relative to video                  : 154ms
Stream size                              : 170 MiB (4%)

Download
***Hidden content cannot be quoted.***