HDTV Green Day - Live VH1 Storytellers 2005 (HDTV-1080i)

NCURBAN

Well-Known Member
Administrative
May 25, 2016
3,358
4,096
113
Green Day - Live VH1 Storytellers 2005 (HDTV-1080i)


Setlist:
  1. American Idiot
  2. Jesus of Suburbia
  3. Holiday
  4. Boulevard of Broken Dreams
  5. Are We the Waiting
  6. St. Jimmy
  7. Give Me Novacaine
  8. She's a Rebel
  9. Extraordinary Girl
  10. Letterbomb
  11. Wake Me Up When September Ends
  12. Homecoming
  13. Whatsername

Code:
Format                                   : MPEG-TS
File size                                : 8.02 GiB
Duration                                 : 1h 4mn
Overall bit rate mode                    : Variable
Overall bit rate                         : 17.8 Mbps

Video
ID                                       : 2048 (0x800)
Menu ID                                  : 1 (0x1)
Format                                   : MPEG Video
Format version                           : Version 2
Format profile                           : Main@High
Format settings, BVOP                    : Yes
Format settings, Matrix                  : Custom
Format settings, GOP                     : Variable
Codec ID                                 : 2
Duration                                 : 1h 4mn
Bit rate mode                            : Variable
Bit rate                                 : 16.6 Mbps
Maximum bit rate                         : 38.8 Mbps
Width                                    : 1 920 pixels
Height                                   : 1 080 pixels
Display aspect ratio                     : 16:9
Frame rate                               : 29.970 fps
Standard                                 : Component
Color space                              : YUV
Chroma subsampling                       : 4:2:0
Bit depth                                : 8 bits
Compression mode                         : Lossy
Bits/(Pixel*Frame)                       : 0.267
Time code of first frame                 : 00:00:00:00
Time code source                         : Group of pictures header
Stream size                              : 7.45 GiB (93%)
Color primaries                          : BT.709
Transfer characteristics                 : BT.709
Matrix coefficients                      : BT.709

Audio
ID                                       : 2049 (0x801)
Menu ID                                  : 1 (0x1)
Format                                   : AC-3
Format/Info                              : Audio Coding 3
Mode extension                           : CM (complete main)
Format settings, Endianness              : Big
Codec ID                                 : 129
Duration                                 : 1h 4mn
Bit rate mode                            : Constant
Bit rate                                 : 384 Kbps
Channel(s)                               : 2 channels
Channel positions                        : Front: L R
Sampling rate                            : 48.0 KHz
Compression mode                         : Lossy
Stream size                              : 177 MiB (2%)

Download
[HIDE-REPLY]MEGA[/HIDE-REPLY]
 
  • Like
Reactions: olli66

RajRag

New Member
Registered
Nov 8, 2017
1
0
1
32
How is the qual?
Green Day - Live VH1 Storytellers 2005 (HDTV-1080i)


Setlist:

  1. American Idiot
    Jesus of Suburbia
    Holiday
    Boulevard of Broken Dreams
    Are We the Waiting
    St. Jimmy
    Give Me Novacaine
    She's a Rebel
    Extraordinary Girl
    Letterbomb
    Wake Me Up When September Ends
    Homecoming
    Whatsername

Code:
Format                                   : MPEG-TS
File size                                : 8.02 GiB
Duration                                 : 1h 4mn
Overall bit rate mode                    : Variable
Overall bit rate                         : 17.8 Mbps

Video
ID                                       : 2048 (0x800)
Menu ID                                  : 1 (0x1)
Format                                   : MPEG Video
Format version                           : Version 2
Format profile                           : Main@High
Format settings, BVOP                    : Yes
Format settings, Matrix                  : Custom
Format settings, GOP                     : Variable
Codec ID                                 : 2
Duration                                 : 1h 4mn
Bit rate mode                            : Variable
Bit rate                                 : 16.6 Mbps
Maximum bit rate                         : 38.8 Mbps
Width                                    : 1 920 pixels
Height                                   : 1 080 pixels
Display aspect ratio                     : 16:9
Frame rate                               : 29.970 fps
Standard                                 : Component
Color space                              : YUV
Chroma subsampling                       : 4:2:0
Bit depth                                : 8 bits
Compression mode                         : Lossy
Bits/(Pixel*Frame)                       : 0.267
Time code of first frame                 : 00:00:00:00
Time code source                         : Group of pictures header
Stream size                              : 7.45 GiB (93%)
Color primaries                          : BT.709
Transfer characteristics                 : BT.709
Matrix coefficients                      : BT.709

Audio
ID                                       : 2049 (0x801)
Menu ID                                  : 1 (0x1)
Format                                   : AC-3
Format/Info                              : Audio Coding 3
Mode extension                           : CM (complete main)
Format settings, Endianness              : Big
Codec ID                                 : 129
Duration                                 : 1h 4mn
Bit rate mode                            : Constant
Bit rate                                 : 384 Kbps
Channel(s)                               : 2 channels
Channel positions                        : Front: L R
Sampling rate                            : 48.0 KHz
Compression mode                         : Lossy
Stream size                              : 177 MiB (2%)

Download
***Hidden content cannot be quoted.***
 

Rabicho

New Member
Registered
Mar 23, 2018
2
0
1
21
Green Day - Live VH1 Storytellers 2005 (HDTV-1080i)


Setlist:

  1. American Idiot
    Jesus of Suburbia
    Holiday
    Boulevard of Broken Dreams
    Are We the Waiting
    St. Jimmy
    Give Me Novacaine
    She's a Rebel
    Extraordinary Girl
    Letterbomb
    Wake Me Up When September Ends
    Homecoming
    Whatsername

Code:
Format                                   : MPEG-TS
File size                                : 8.02 GiB
Duration                                 : 1h 4mn
Overall bit rate mode                    : Variable
Overall bit rate                         : 17.8 Mbps

Video
ID                                       : 2048 (0x800)
Menu ID                                  : 1 (0x1)
Format                                   : MPEG Video
Format version                           : Version 2
Format profile                           : Main@High
Format settings, BVOP                    : Yes
Format settings, Matrix                  : Custom
Format settings, GOP                     : Variable
Codec ID                                 : 2
Duration                                 : 1h 4mn
Bit rate mode                            : Variable
Bit rate                                 : 16.6 Mbps
Maximum bit rate                         : 38.8 Mbps
Width                                    : 1 920 pixels
Height                                   : 1 080 pixels
Display aspect ratio                     : 16:9
Frame rate                               : 29.970 fps
Standard                                 : Component
Color space                              : YUV
Chroma subsampling                       : 4:2:0
Bit depth                                : 8 bits
Compression mode                         : Lossy
Bits/(Pixel*Frame)                       : 0.267
Time code of first frame                 : 00:00:00:00
Time code source                         : Group of pictures header
Stream size                              : 7.45 GiB (93%)
Color primaries                          : BT.709
Transfer characteristics                 : BT.709
Matrix coefficients                      : BT.709

Audio
ID                                       : 2049 (0x801)
Menu ID                                  : 1 (0x1)
Format                                   : AC-3
Format/Info                              : Audio Coding 3
Mode extension                           : CM (complete main)
Format settings, Endianness              : Big
Codec ID                                 : 129
Duration                                 : 1h 4mn
Bit rate mode                            : Constant
Bit rate                                 : 384 Kbps
Channel(s)                               : 2 channels
Channel positions                        : Front: L R
Sampling rate                            : 48.0 KHz
Compression mode                         : Lossy
Stream size                              : 177 MiB (2%)

Download
***Hidden content cannot be quoted.***
Green Day - Live VH1 Storytellers 2005 (HDTV-1080i)


Setlist:

  1. American Idiot
    Jesus of Suburbia
    Holiday
    Boulevard of Broken Dreams
    Are We the Waiting
    St. Jimmy
    Give Me Novacaine
    She's a Rebel
    Extraordinary Girl
    Letterbomb
    Wake Me Up When September Ends
    Homecoming
    Whatsername

Code:
Format                                   : MPEG-TS
File size                                : 8.02 GiB
Duration                                 : 1h 4mn
Overall bit rate mode                    : Variable
Overall bit rate                         : 17.8 Mbps

Video
ID                                       : 2048 (0x800)
Menu ID                                  : 1 (0x1)
Format                                   : MPEG Video
Format version                           : Version 2
Format profile                           : Main@High
Format settings, BVOP                    : Yes
Format settings, Matrix                  : Custom
Format settings, GOP                     : Variable
Codec ID                                 : 2
Duration                                 : 1h 4mn
Bit rate mode                            : Variable
Bit rate                                 : 16.6 Mbps
Maximum bit rate                         : 38.8 Mbps
Width                                    : 1 920 pixels
Height                                   : 1 080 pixels
Display aspect ratio                     : 16:9
Frame rate                               : 29.970 fps
Standard                                 : Component
Color space                              : YUV
Chroma subsampling                       : 4:2:0
Bit depth                                : 8 bits
Compression mode                         : Lossy
Bits/(Pixel*Frame)                       : 0.267
Time code of first frame                 : 00:00:00:00
Time code source                         : Group of pictures header
Stream size                              : 7.45 GiB (93%)
Color primaries                          : BT.709
Transfer characteristics                 : BT.709
Matrix coefficients                      : BT.709

Audio
ID                                       : 2049 (0x801)
Menu ID                                  : 1 (0x1)
Format                                   : AC-3
Format/Info                              : Audio Coding 3
Mode extension                           : CM (complete main)
Format settings, Endianness              : Big
Codec ID                                 : 129
Duration                                 : 1h 4mn
Bit rate mode                            : Constant
Bit rate                                 : 384 Kbps
Channel(s)                               : 2 channels
Channel positions                        : Front: L R
Sampling rate                            : 48.0 KHz
Compression mode                         : Lossy
Stream size                              : 177 MiB (2%)

Download
***Hidden content cannot be quoted.***
 

brenhow

New Member
Registered
Feb 7, 2020
1
0
1
49
Green Day - Live VH1 Storytellers 2005 (HDTV-1080i)


Setlist:

  1. American Idiot
    Jesus of Suburbia
    Holiday
    Boulevard of Broken Dreams
    Are We the Waiting
    St. Jimmy
    Give Me Novacaine
    She's a Rebel
    Extraordinary Girl
    Letterbomb
    Wake Me Up When September Ends
    Homecoming
    Whatsername

Code:
Format                                   : MPEG-TS
File size                                : 8.02 GiB
Duration                                 : 1h 4mn
Overall bit rate mode                    : Variable
Overall bit rate                         : 17.8 Mbps

Video
ID                                       : 2048 (0x800)
Menu ID                                  : 1 (0x1)
Format                                   : MPEG Video
Format version                           : Version 2
Format profile                           : Main@High
Format settings, BVOP                    : Yes
Format settings, Matrix                  : Custom
Format settings, GOP                     : Variable
Codec ID                                 : 2
Duration                                 : 1h 4mn
Bit rate mode                            : Variable
Bit rate                                 : 16.6 Mbps
Maximum bit rate                         : 38.8 Mbps
Width                                    : 1 920 pixels
Height                                   : 1 080 pixels
Display aspect ratio                     : 16:9
Frame rate                               : 29.970 fps
Standard                                 : Component
Color space                              : YUV
Chroma subsampling                       : 4:2:0
Bit depth                                : 8 bits
Compression mode                         : Lossy
Bits/(Pixel*Frame)                       : 0.267
Time code of first frame                 : 00:00:00:00
Time code source                         : Group of pictures header
Stream size                              : 7.45 GiB (93%)
Color primaries                          : BT.709
Transfer characteristics                 : BT.709
Matrix coefficients                      : BT.709

Audio
ID                                       : 2049 (0x801)
Menu ID                                  : 1 (0x1)
Format                                   : AC-3
Format/Info                              : Audio Coding 3
Mode extension                           : CM (complete main)
Format settings, Endianness              : Big
Codec ID                                 : 129
Duration                                 : 1h 4mn
Bit rate mode                            : Constant
Bit rate                                 : 384 Kbps
Channel(s)                               : 2 channels
Channel positions                        : Front: L R
Sampling rate                            : 48.0 KHz
Compression mode                         : Lossy
Stream size                              : 177 MiB (2%)

Download
***Hidden content cannot be quoted.***
Thanks!
 

Suleman

New Member
Registered
Mar 28, 2020
1
0
1
27
Green Day - Live VH1 Storytellers 2005 (HDTV-1080i)


Setlist:

  1. American Idiot
    Jesus of Suburbia
    Holiday
    Boulevard of Broken Dreams
    Are We the Waiting
    St. Jimmy
    Give Me Novacaine
    She's a Rebel
    Extraordinary Girl
    Letterbomb
    Wake Me Up When September Ends
    Homecoming
    Whatsername

Code:
Format                                   : MPEG-TS
File size                                : 8.02 GiB
Duration                                 : 1h 4mn
Overall bit rate mode                    : Variable
Overall bit rate                         : 17.8 Mbps

Video
ID                                       : 2048 (0x800)
Menu ID                                  : 1 (0x1)
Format                                   : MPEG Video
Format version                           : Version 2
Format profile                           : Main@High
Format settings, BVOP                    : Yes
Format settings, Matrix                  : Custom
Format settings, GOP                     : Variable
Codec ID                                 : 2
Duration                                 : 1h 4mn
Bit rate mode                            : Variable
Bit rate                                 : 16.6 Mbps
Maximum bit rate                         : 38.8 Mbps
Width                                    : 1 920 pixels
Height                                   : 1 080 pixels
Display aspect ratio                     : 16:9
Frame rate                               : 29.970 fps
Standard                                 : Component
Color space                              : YUV
Chroma subsampling                       : 4:2:0
Bit depth                                : 8 bits
Compression mode                         : Lossy
Bits/(Pixel*Frame)                       : 0.267
Time code of first frame                 : 00:00:00:00
Time code source                         : Group of pictures header
Stream size                              : 7.45 GiB (93%)
Color primaries                          : BT.709
Transfer characteristics                 : BT.709
Matrix coefficients                      : BT.709

Audio
ID                                       : 2049 (0x801)
Menu ID                                  : 1 (0x1)
Format                                   : AC-3
Format/Info                              : Audio Coding 3
Mode extension                           : CM (complete main)
Format settings, Endianness              : Big
Codec ID                                 : 129
Duration                                 : 1h 4mn
Bit rate mode                            : Constant
Bit rate                                 : 384 Kbps
Channel(s)                               : 2 channels
Channel positions                        : Front: L R
Sampling rate                            : 48.0 KHz
Compression mode                         : Lossy
Stream size                              : 177 MiB (2%)

Download
***Hidden content cannot be quoted.***
Nice