HDTV Green Day - The Fox Theatre 2009 (1080i-HDTV)-TrollHD

NCURBAN

Well-Known Member
Administrative
May 25, 2016
3,358
4,092
113
Green Day - The Fox Theatre 2009 (1080i-HDTV)-TrollHD

Gener: Rock
Tour: 21st Century Breakdown
Live At: The Fox Theater, Oakland, CA, USA
Date: Apr 14, 2009
Setlist:
  1. 21st Century Breakdown
  2. Know Your Enemy
  3. ¡Viva la Gloria!
  4. Before the Lobotomy
  5. Christian's Inferno
  6. Last Night on Earth
  7. East Jesus Nowhere
  8. Peacemaker
  9. Last of the American Girls
  10. Murder City
  11. ¿Viva La Gloria? (Little Girl)
  12. Restless Heart Syndrome
  13. Horseshoes and Handgrenades
  14. The Static Age
  15. 21 Guns
  16. American Eulogy
  17. See the Light
  18. American Idiot
  19. Jesus of Suburbia
  20. St. Jimmy
  21. Longview
  22. Welcome to Paradise
  23. She
  24. Going to Pasalacqua
  25. King for a Day
  26. Shout (The Isley Brothers cover)
  27. Minority
  28. Homecoming
Code:
[LEFT]Format                                   : MPEG-TS
File size                                : 6.89 GiB
Duration                                 : 53 min 59 s
Overall bit rate mode                    : Variable
Overall bit rate                         : 18.3 Mb/s

Video
ID                                       : 33 (0x21)
Menu ID                                  : 1 (0x1)
Format                                   : MPEG Video
Format version                           : Version 2
Format profile                           : Main@High
Format settings, BVOP                    : Yes
Format settings, Matrix                  : Custom
Format settings, GOP                     : M=3, N=15
Format settings, picture structure       : Frame
Codec ID                                 : 2
Duration                                 : 53 min 59 s
Bit rate mode                            : Variable
Bit rate                                 : 17.0 Mb/s
Maximum bit rate                         : 80.0 Mb/s
Width                                    : 1 920 pixels
Height                                   : 1 080 pixels
Display aspect ratio                     : 16:9
Frame rate                               : 29.970 (30000/1001) FPS
Color space                              : YUV
Chroma subsampling                       : 4:2:0
Bit depth                                : 8 bits
Scan type                                : Interlaced
Scan order                               : Top Field First
Compression mode                         : Lossy
Bits/(Pixel*Frame)                       : 0.273
Time code of first frame                 : 00:00:00;00
Time code source                         : Group of pictures header
GOP, Open/Closed                         : Open
GOP, Open/Closed of first frame          : Closed
Stream size                              : 6.40 GiB (93%)

Audio
ID                                       : 36 (0x24)
Menu ID                                  : 1 (0x1)
Format                                   : AC-3
Format/Info                              : Audio Coding 3
Mode extension                           : CM (complete main)
Format settings, Endianness              : Big
Codec ID                                 : 129
Duration                                 : 53 min 59 s
Bit rate mode                            : Constant
Bit rate                                 : 384 kb/s
Channel(s)                               : 6 channels
Channel positions                        : Front: L C R, Side: L R, LFE
Sampling rate                            : 48.0 kHz
Frame rate                               : 31.250 FPS (1536 spf)
Bit depth                                : 16 bits
Compression mode                         : Lossy
Stream size                              : 148 MiB (2%)
Language                                 : English[/LEFT]
Download
You must reply before you can see the hidden data contained here.
 
Last edited: