FEED Gwen Stefani - Yahoo Concerts 2016 [FEED-1080i]-TrollHD

NCURBAN

Well-Known Member
Administrative
May 25, 2016
3,358
4,083
113
Gwen Stefani - Yahoo Concerts 2016 [FEED-1080i]-TrollHD


Setlist:
  1. Red Flag Intro
  2. Wind It Up
  3. Play Video
  4. Obsessed
  5. Where Would I Be?
  6. Cool
  7. Make Me Like You
  8. Underneath It All (No Doubt song)
  9. Misery
  10. Luxurious
  11. Harajuku Girls
  12. Let Me Blow Ya Mind (Eve cover)
  13. Rich Girl
  14. Hella Good (No Doubt song)
  15. What You Waiting For?
  16. Rare
  17. It's My Life (No Doubt song)
  18. Asking 4 It
  19. Don't Speak
  20. (No Doubt song)
  21. Naughty
  22. Used to Love You
  23. Hollaback Girl
  24. Truth
  25. Just a Girl (No Doubt song)
  26. The Sweet Escape
Code:
Format                                   : MPEG-TS
File size                                : 10.8 GiB
Duration                                 : 1h 44mn
Overall bit rate mode                    : Variable
Overall bit rate                         : 14.8 Mbps

Video
ID                                       : 481 (0x1E1)
Menu ID                                  : 1 (0x1)
Format                                   : AVC
Format/Info                              : Advanced Video Codec
Format profile                           : High@L4
Format settings, CABAC                   : Yes
Format settings, ReFrames                : 3 frames
Codec ID                                 : 27
Duration                                 : 1h 44mn
Bit rate mode                            : Constant
Bit rate                                 : 14.1 Mbps
Width                                    : 1 920 pixels
Height                                   : 1 080 pixels
Display aspect ratio                     : 16:9
Frame rate                               : 29.970 fps
Color space                              : YUV
Chroma subsampling                       : 4:2:0
Bit depth                                : 8 bits
Scan type                                : Interlaced
Scan order                               : Top Field First
Bits/(Pixel*Frame)                       : 0.227
Stream size                              : 10.0 GiB (93%)
Color range                              : Limited
Color primaries                          : BT.709
Transfer characteristics                 : BT.709
Matrix coefficients                      : BT.709

Audio
ID                                       : 482 (0x1E2)
Menu ID                                  : 1 (0x1)
Format                                   : MPEG Audio
Format version                           : Version 1
Format profile                           : Layer 2
Codec ID                                 : 3
Duration                                 : 1h 44mn
Bit rate mode                            : Constant
Bit rate                                 : 256 Kbps
Channel(s)                               : 2 channels
Sampling rate                            : 48.0 KHz
Compression mode                         : Lossy
Stream size                              : 191 MiB (2%)
Language                                 : English

Download
You must reply before you can see the hidden data contained here.
 
Last edited:
  • Like
Reactions: Wilson Filho