HDTV Hailee Steinfeld - Starving (Z100 iHeart Radio Jingle Ball 2016) [HDTV-1080i]-ALANiS

NCURBAN

Well-Known Member
Administrative
May 25, 2016
3,358
4,095
113
Hailee Steinfeld - Starving (Z100 iHeart Radio Jingle Ball 2016) [HDTV-1080i]-ALANiS


Gener: Pop
Tour: Z100 iHeart Radio Jingle Ball
At: Madison Square Garden, New York, NY, USA
Date: Dec 09, 2016
Code:
Format                                   : MPEG-TS
File size                                : 120 MiB
Duration                                 : 4 min 25 s
Overall bit rate mode                    : Variable
Overall bit rate                         : 3 800 kb/s

Video
ID                                       : 481 (0x1E1)
Menu ID                                  : 1 (0x1)
Format                                   : AVC
Format/Info                              : Advanced Video Codec
Format profile                           : High@L4
Format settings, CABAC                   : Yes
Format settings, ReFrames                : 3 frames
Codec ID                                 : 27
Duration                                 : 4 min 25 s
Bit rate mode                            : Constant
Bit rate                                 : 3 400 kb/s
Width                                    : 1 920 pixels
Height                                   : 1 080 pixels
Display aspect ratio                     : 16:9
Frame rate                               : 29.970 (30000/1001) FPS
Color space                              : YUV
Chroma subsampling                       : 4:2:0
Bit depth                                : 8 bits
Scan type                                : Interlaced
Scan type, store method                  : Separated fields
Scan order                               : Top Field First
Bits/(Pixel*Frame)                       : 0.055
Stream size                              : 108 MiB (90%)
Color range                              : Limited
Color primaries                          : BT.709
Transfer characteristics                 : BT.709
Matrix coefficients                      : BT.709

Audio
ID                                       : 482 (0x1E2)
Menu ID                                  : 1 (0x1)
Format                                   : MPEG Audio
Format version                           : Version 1
Format profile                           : Layer 2
Codec ID                                 : 3
Duration                                 : 4 min 25 s
Bit rate mode                            : Constant
Bit rate                                 : 192 kb/s
Channel(s)                               : 2 channels
Sampling rate                            : 48.0 kHz
Compression mode                         : Lossy
Delay relative to video                  : -33 ms
Stream size                              : 6.08 MiB (5%)
Language                                 : English
Download
You must reply before you can see the hidden data contained here.