ProRes Halsey - Castle (LPCM-DVCPRO-Master-1080i)

NCURBAN

Well-Known Member
Administrative
May 25, 2016
3,347
3,634
113
Halsey - Castle (LPCM-DVCPRO-Master-1080i)



Genres: Alternative
Released: Apr 15, 2016

Code:
Format                                   : MPEG-4
Commercial name                          : DVCPRO HD
Format profile                           : QuickTime
Codec ID                                 : qt
File size                                : 1.98 GiB
Duration                                 : 3mn 1s
Overall bit rate                         : 93.6 Mbps
Encoded date                             : UTC 2016-04-14 23:03:58
Tagged date                              : UTC 2016-04-14 23:07:15
Writing library                          : Apple QuickTime
com.apple.quicktime.player.movie.audio.p : (Binary)
com.apple.quicktime.player.movie.visual. : 7.6.6 (7.6.6)
Media/History/UUID                       : 3C4BFEA7-0ED8-40B5-B6D1-58F19247752F

Video
ID                                       : 1
Format                                   : DV
Commercial name                          : DVCPRO HD
Codec ID                                 : dvh6
Duration                                 : 3mn 1s
Bit rate mode                            : Constant
Bit rate                                 : 92.1 Mbps
Width                                    : 1 280 pixels
Clean aperture width                     : 1 259 pixels
Height                                   : 1 080 pixels
Clean aperture height                    : 1 062 pixels
Display aspect ratio                     : 16:9
Clean aperture display aspect ratio      : 16:9
Frame rate mode                          : Constant
Frame rate                               : 23.976 fps
Original frame rate                      : 29.970 fps
Standard                                 : NTSC
Color space                              : YUV
Chroma subsampling                       : 4:2:2
Scan type                                : Interlaced
Scan type, store method                  : Interleaved fields
Scan order                               : Top Field First
Compression mode                         : Lossy
Bits/(Pixel*Frame)                       : 2.778
Time code of first frame                 : 00:00:00:00
Time code source                         : Subcode time code
Stream size                              : 1.95 GiB (98%)
Language                                 : English
Encoded date                             : UTC 2016-04-14 23:03:56
Tagged date                              : UTC 2016-04-14 23:07:15
Color primaries                          : BT.709
Transfer characteristics                 : BT.709
Matrix coefficients                      : BT.709

Audio
ID                                       : 3
Format                                   : PCM
Format settings, Endianness              : Little
Format settings, Sign                    : Signed
Codec ID                                 : sowt
Duration                                 : 3mn 1s
Bit rate mode                            : Constant
Bit rate                                 : 1 536 Kbps
Channel(s)                               : 2 channels
Channel positions                        : Front: L R
Sampling rate                            : 48.0 KHz
Bit depth                                : 16 bits
Stream size                              : 33.3 MiB (2%)
Language                                 : English
Encoded date                             : UTC 2016-04-14 23:03:58
Tagged date                              : UTC 2016-04-14 23:07:15


Download
[HIDE-REPLY]MEGA[/HIDE-REPLY]
 
Last edited:

simonmkwii

New Member
Registered
Jul 5, 2017
2
0
1
33
Halsey - Castle (LPCM-DVCPRO-Master-1080i)



Genres: Alternative
Released: Apr 15, 2016

Code:
Format                                   : MPEG-4
Commercial name                          : DVCPRO HD
Format profile                           : QuickTime
Codec ID                                 : qt
File size                                : 1.98 GiB
Duration                                 : 3mn 1s
Overall bit rate                         : 93.6 Mbps
Encoded date                             : UTC 2016-04-14 23:03:58
Tagged date                              : UTC 2016-04-14 23:07:15
Writing library                          : Apple QuickTime
com.apple.quicktime.player.movie.audio.p : (Binary)
com.apple.quicktime.player.movie.visual. : 7.6.6 (7.6.6)
Media/History/UUID                       : 3C4BFEA7-0ED8-40B5-B6D1-58F19247752F

Video
ID                                       : 1
Format                                   : DV
Commercial name                          : DVCPRO HD
Codec ID                                 : dvh6
Duration                                 : 3mn 1s
Bit rate mode                            : Constant
Bit rate                                 : 92.1 Mbps
Width                                    : 1 280 pixels
Clean aperture width                     : 1 259 pixels
Height                                   : 1 080 pixels
Clean aperture height                    : 1 062 pixels
Display aspect ratio                     : 16:9
Clean aperture display aspect ratio      : 16:9
Frame rate mode                          : Constant
Frame rate                               : 23.976 fps
Original frame rate                      : 29.970 fps
Standard                                 : NTSC
Color space                              : YUV
Chroma subsampling                       : 4:2:2
Scan type                                : Interlaced
Scan type, store method                  : Interleaved fields
Scan order                               : Top Field First
Compression mode                         : Lossy
Bits/(Pixel*Frame)                       : 2.778
Time code of first frame                 : 00:00:00:00
Time code source                         : Subcode time code
Stream size                              : 1.95 GiB (98%)
Language                                 : English
Encoded date                             : UTC 2016-04-14 23:03:56
Tagged date                              : UTC 2016-04-14 23:07:15
Color primaries                          : BT.709
Transfer characteristics                 : BT.709
Matrix coefficients                      : BT.709

Audio
ID                                       : 3
Format                                   : PCM
Format settings, Endianness              : Little
Format settings, Sign                    : Signed
Codec ID                                 : sowt
Duration                                 : 3mn 1s
Bit rate mode                            : Constant
Bit rate                                 : 1 536 Kbps
Channel(s)                               : 2 channels
Channel positions                        : Front: L R
Sampling rate                            : 48.0 KHz
Bit depth                                : 16 bits
Stream size                              : 33.3 MiB (2%)
Language                                 : English
Encoded date                             : UTC 2016-04-14 23:03:58
Tagged date                              : UTC 2016-04-14 23:07:15



Download
***Hidden content cannot be quoted.***
Thank you!
 

Natt

Member
Registered
Jun 11, 2018
56
0
6
21
Halsey - Castle (LPCM-DVCPRO-Master-1080i)



Genres: Alternative
Released: Apr 15, 2016

Code:
Format                                   : MPEG-4
Commercial name                          : DVCPRO HD
Format profile                           : QuickTime
Codec ID                                 : qt
File size                                : 1.98 GiB
Duration                                 : 3mn 1s
Overall bit rate                         : 93.6 Mbps
Encoded date                             : UTC 2016-04-14 23:03:58
Tagged date                              : UTC 2016-04-14 23:07:15
Writing library                          : Apple QuickTime
com.apple.quicktime.player.movie.audio.p : (Binary)
com.apple.quicktime.player.movie.visual. : 7.6.6 (7.6.6)
Media/History/UUID                       : 3C4BFEA7-0ED8-40B5-B6D1-58F19247752F

Video
ID                                       : 1
Format                                   : DV
Commercial name                          : DVCPRO HD
Codec ID                                 : dvh6
Duration                                 : 3mn 1s
Bit rate mode                            : Constant
Bit rate                                 : 92.1 Mbps
Width                                    : 1 280 pixels
Clean aperture width                     : 1 259 pixels
Height                                   : 1 080 pixels
Clean aperture height                    : 1 062 pixels
Display aspect ratio                     : 16:9
Clean aperture display aspect ratio      : 16:9
Frame rate mode                          : Constant
Frame rate                               : 23.976 fps
Original frame rate                      : 29.970 fps
Standard                                 : NTSC
Color space                              : YUV
Chroma subsampling                       : 4:2:2
Scan type                                : Interlaced
Scan type, store method                  : Interleaved fields
Scan order                               : Top Field First
Compression mode                         : Lossy
Bits/(Pixel*Frame)                       : 2.778
Time code of first frame                 : 00:00:00:00
Time code source                         : Subcode time code
Stream size                              : 1.95 GiB (98%)
Language                                 : English
Encoded date                             : UTC 2016-04-14 23:03:56
Tagged date                              : UTC 2016-04-14 23:07:15
Color primaries                          : BT.709
Transfer characteristics                 : BT.709
Matrix coefficients                      : BT.709

Audio
ID                                       : 3
Format                                   : PCM
Format settings, Endianness              : Little
Format settings, Sign                    : Signed
Codec ID                                 : sowt
Duration                                 : 3mn 1s
Bit rate mode                            : Constant
Bit rate                                 : 1 536 Kbps
Channel(s)                               : 2 channels
Channel positions                        : Front: L R
Sampling rate                            : 48.0 KHz
Bit depth                                : 16 bits
Stream size                              : 33.3 MiB (2%)
Language                                 : English
Encoded date                             : UTC 2016-04-14 23:03:58
Tagged date                              : UTC 2016-04-14 23:07:15



Download
***Hidden content cannot be quoted.***
 

xXIMANXx

Member
Registered
Oct 31, 2018
376
6
18
20
Halsey - Castle (LPCM-DVCPRO-Master-1080i)



Genres: Alternative
Released: Apr 15, 2016

Code:
Format                                   : MPEG-4
Commercial name                          : DVCPRO HD
Format profile                           : QuickTime
Codec ID                                 : qt
File size                                : 1.98 GiB
Duration                                 : 3mn 1s
Overall bit rate                         : 93.6 Mbps
Encoded date                             : UTC 2016-04-14 23:03:58
Tagged date                              : UTC 2016-04-14 23:07:15
Writing library                          : Apple QuickTime
com.apple.quicktime.player.movie.audio.p : (Binary)
com.apple.quicktime.player.movie.visual. : 7.6.6 (7.6.6)
Media/History/UUID                       : 3C4BFEA7-0ED8-40B5-B6D1-58F19247752F

Video
ID                                       : 1
Format                                   : DV
Commercial name                          : DVCPRO HD
Codec ID                                 : dvh6
Duration                                 : 3mn 1s
Bit rate mode                            : Constant
Bit rate                                 : 92.1 Mbps
Width                                    : 1 280 pixels
Clean aperture width                     : 1 259 pixels
Height                                   : 1 080 pixels
Clean aperture height                    : 1 062 pixels
Display aspect ratio                     : 16:9
Clean aperture display aspect ratio      : 16:9
Frame rate mode                          : Constant
Frame rate                               : 23.976 fps
Original frame rate                      : 29.970 fps
Standard                                 : NTSC
Color space                              : YUV
Chroma subsampling                       : 4:2:2
Scan type                                : Interlaced
Scan type, store method                  : Interleaved fields
Scan order                               : Top Field First
Compression mode                         : Lossy
Bits/(Pixel*Frame)                       : 2.778
Time code of first frame                 : 00:00:00:00
Time code source                         : Subcode time code
Stream size                              : 1.95 GiB (98%)
Language                                 : English
Encoded date                             : UTC 2016-04-14 23:03:56
Tagged date                              : UTC 2016-04-14 23:07:15
Color primaries                          : BT.709
Transfer characteristics                 : BT.709
Matrix coefficients                      : BT.709

Audio
ID                                       : 3
Format                                   : PCM
Format settings, Endianness              : Little
Format settings, Sign                    : Signed
Codec ID                                 : sowt
Duration                                 : 3mn 1s
Bit rate mode                            : Constant
Bit rate                                 : 1 536 Kbps
Channel(s)                               : 2 channels
Channel positions                        : Front: L R
Sampling rate                            : 48.0 KHz
Bit depth                                : 16 bits
Stream size                              : 33.3 MiB (2%)
Language                                 : English
Encoded date                             : UTC 2016-04-14 23:03:58
Tagged date                              : UTC 2016-04-14 23:07:15



Download
***Hidden content cannot be quoted.***
 

Raj

Member
Registered
Jul 3, 2019
67
0
6
29
Halsey - Castle (LPCM-DVCPRO-Master-1080i)



Genres: Alternative
Released: Apr 15, 2016

Code:
Format                                   : MPEG-4
Commercial name                          : DVCPRO HD
Format profile                           : QuickTime
Codec ID                                 : qt
File size                                : 1.98 GiB
Duration                                 : 3mn 1s
Overall bit rate                         : 93.6 Mbps
Encoded date                             : UTC 2016-04-14 23:03:58
Tagged date                              : UTC 2016-04-14 23:07:15
Writing library                          : Apple QuickTime
com.apple.quicktime.player.movie.audio.p : (Binary)
com.apple.quicktime.player.movie.visual. : 7.6.6 (7.6.6)
Media/History/UUID                       : 3C4BFEA7-0ED8-40B5-B6D1-58F19247752F

Video
ID                                       : 1
Format                                   : DV
Commercial name                          : DVCPRO HD
Codec ID                                 : dvh6
Duration                                 : 3mn 1s
Bit rate mode                            : Constant
Bit rate                                 : 92.1 Mbps
Width                                    : 1 280 pixels
Clean aperture width                     : 1 259 pixels
Height                                   : 1 080 pixels
Clean aperture height                    : 1 062 pixels
Display aspect ratio                     : 16:9
Clean aperture display aspect ratio      : 16:9
Frame rate mode                          : Constant
Frame rate                               : 23.976 fps
Original frame rate                      : 29.970 fps
Standard                                 : NTSC
Color space                              : YUV
Chroma subsampling                       : 4:2:2
Scan type                                : Interlaced
Scan type, store method                  : Interleaved fields
Scan order                               : Top Field First
Compression mode                         : Lossy
Bits/(Pixel*Frame)                       : 2.778
Time code of first frame                 : 00:00:00:00
Time code source                         : Subcode time code
Stream size                              : 1.95 GiB (98%)
Language                                 : English
Encoded date                             : UTC 2016-04-14 23:03:56
Tagged date                              : UTC 2016-04-14 23:07:15
Color primaries                          : BT.709
Transfer characteristics                 : BT.709
Matrix coefficients                      : BT.709

Audio
ID                                       : 3
Format                                   : PCM
Format settings, Endianness              : Little
Format settings, Sign                    : Signed
Codec ID                                 : sowt
Duration                                 : 3mn 1s
Bit rate mode                            : Constant
Bit rate                                 : 1 536 Kbps
Channel(s)                               : 2 channels
Channel positions                        : Front: L R
Sampling rate                            : 48.0 KHz
Bit depth                                : 16 bits
Stream size                              : 33.3 MiB (2%)
Language                                 : English
Encoded date                             : UTC 2016-04-14 23:03:58
Tagged date                              : UTC 2016-04-14 23:07:15



Download
***Hidden content cannot be quoted.***
 

vuivlu

Member
Registered
Dec 24, 2019
32
0
6
20
Halsey - Castle (LPCM-DVCPRO-Master-1080i)



Genres: Alternative
Released: Apr 15, 2016

Code:
Format                                   : MPEG-4
Commercial name                          : DVCPRO HD
Format profile                           : QuickTime
Codec ID                                 : qt
File size                                : 1.98 GiB
Duration                                 : 3mn 1s
Overall bit rate                         : 93.6 Mbps
Encoded date                             : UTC 2016-04-14 23:03:58
Tagged date                              : UTC 2016-04-14 23:07:15
Writing library                          : Apple QuickTime
com.apple.quicktime.player.movie.audio.p : (Binary)
com.apple.quicktime.player.movie.visual. : 7.6.6 (7.6.6)
Media/History/UUID                       : 3C4BFEA7-0ED8-40B5-B6D1-58F19247752F

Video
ID                                       : 1
Format                                   : DV
Commercial name                          : DVCPRO HD
Codec ID                                 : dvh6
Duration                                 : 3mn 1s
Bit rate mode                            : Constant
Bit rate                                 : 92.1 Mbps
Width                                    : 1 280 pixels
Clean aperture width                     : 1 259 pixels
Height                                   : 1 080 pixels
Clean aperture height                    : 1 062 pixels
Display aspect ratio                     : 16:9
Clean aperture display aspect ratio      : 16:9
Frame rate mode                          : Constant
Frame rate                               : 23.976 fps
Original frame rate                      : 29.970 fps
Standard                                 : NTSC
Color space                              : YUV
Chroma subsampling                       : 4:2:2
Scan type                                : Interlaced
Scan type, store method                  : Interleaved fields
Scan order                               : Top Field First
Compression mode                         : Lossy
Bits/(Pixel*Frame)                       : 2.778
Time code of first frame                 : 00:00:00:00
Time code source                         : Subcode time code
Stream size                              : 1.95 GiB (98%)
Language                                 : English
Encoded date                             : UTC 2016-04-14 23:03:56
Tagged date                              : UTC 2016-04-14 23:07:15
Color primaries                          : BT.709
Transfer characteristics                 : BT.709
Matrix coefficients                      : BT.709

Audio
ID                                       : 3
Format                                   : PCM
Format settings, Endianness              : Little
Format settings, Sign                    : Signed
Codec ID                                 : sowt
Duration                                 : 3mn 1s
Bit rate mode                            : Constant
Bit rate                                 : 1 536 Kbps
Channel(s)                               : 2 channels
Channel positions                        : Front: L R
Sampling rate                            : 48.0 KHz
Bit depth                                : 16 bits
Stream size                              : 33.3 MiB (2%)
Language                                 : English
Encoded date                             : UTC 2016-04-14 23:03:58
Tagged date                              : UTC 2016-04-14 23:07:15



Download
***Hidden content cannot be quoted.***
Thank You!