1. If this is your first visit, be sure to check out the FAQ by clicking the link above. You may have to register before you can access the full forum. Follow the link above to Register. To start viewing messages, select the forum that you want to visit from the selection below.
    Dismiss Notice

HDTV Halsey - Colors (The Tonight Show starring Jimmy Fallon 2016) [HDTV-1080i]-HDMania

Discussion in 'Live Performances & Concerts' started by NCURBAN, Jun 14, 2016.

  1. NCURBAN

    NCURBAN Well-Known Member Administrative

    Joined:
    May 25, 2016
    Messages:
    2,728
    Likes Received:
    965
    Trophy Points:
    113
    Halsey - Colors (The Tonight Show starring Jimmy Fallon 2016) [HDTV-1080i]-HDMania

    [​IMG]

    Code:
    Format                         : MPEG-TS
    File size                      : 336 MiB
    Duration                       : 5mn 6s
    Overall bit rate mode          : Variable
    Overall bit rate               : 9 207 Kbps
    
    Video
    ID                             : 1312 (0x520)
    Menu ID                        : 541 (0x21D)
    Format                         : AVC
    Format/Info                    : Advanced Video Codec
    Format profile                 : High@L4
    Format settings, CABAC         : Yes
    Format settings, ReFrames      : 4 frames
    Format settings, GOP           : M=3, N=15
    Codec ID                       : 27
    Duration                       : 5mn 6s
    Bit rate                       : 7 976 Kbps
    Width                          : 1 920 pixels
    Height                         : 1 080 pixels
    Display aspect ratio           : 16:9
    Frame rate                     : 29.970 fps
    Standard                       : Component
    Color space                    : YUV
    Chroma subsampling             : 4:2:0
    Bit depth                      : 8 bits
    Scan type                      : MBAFF
    Scan order                     : Top Field First
    Bits/(Pixel*Frame)             : 0.128
    Stream size                    : 291 MiB (87%)
    Color range                    : Limited
    Color primaries                : BT.709
    Transfer characteristics       : BT.709
    Matrix coefficients            : BT.709
    
    Audio #1
    ID                             : 1313 (0x521)
    Menu ID                        : 541 (0x21D)
    Format                         : AC-3
    Format/Info                    : Audio Coding 3
    Mode extension                 : CM (complete main)
    Format settings, Endianness    : Big
    Codec ID                       : 129
    Duration                       : 5mn 6s
    Bit rate mode                  : Constant
    Bit rate                       : 384 Kbps
    Channel(s)                     : 6 channels
    Channel positions              : Front: L C R, Side: L R, LFE
    Sampling rate                  : 48.0 KHz
    Compression mode               : Lossy
    Stream size                    : 14.0 MiB (4%)
    Language                       : English
    
    Audio #2
    ID                             : 1314 (0x522)
    Menu ID                        : 541 (0x21D)
    Format                         : AC-3
    Format/Info                    : Audio Coding 3
    Mode extension                 : CM (complete main)
    Format settings, Endianness    : Big
    Codec ID                       : 129
    Duration                       : 5mn 6s
    Bit rate mode                  : Constant
    Bit rate                       : 384 Kbps
    Channel(s)                     : 2 channels
    Channel positions              : Front: L R
    Sampling rate                  : 48.0 KHz
    Compression mode               : Lossy
    Stream size                    : 14.0 MiB (4%)
    Language                       : dub
    
    Text
    ID                             : 3192 (0xC78)
    Menu ID                        : 541 (0x21D)
    Format                         : DVB Subtitle
    Codec ID                       : 6
    Duration                       : 5mn 6s
    Delay relative to video        : 33ms
    Language                       : Portuguese

    Download
    Hidden Content:
    You must reply before you can see the hidden data contained here.
     
  2. Loading...


  3. COOKINGHOIL

    COOKINGHOIL New Member Registered

    Joined:
    Aug 19, 2018
    Messages:
    4
    Likes Received:
    0
    Trophy Points:
    1