Master Iggy Azalea feat. Charli XCX - Fancy (Master-1080p-LPCM)

NCURBAN

Well-Known Member
Administrative
May 25, 2016
3,347
3,891
113
Iggy Azalea feat. Charli XCX - Fancy (Master-1080p-LPCM)



Genres: Hip-Hop/Rap
Released: Mar 04, 2014​

Code:
Format                                   : MPEG-4
Format profile                           : QuickTime
Codec ID                                 : qt 
File size                                : 325 MiB
Duration                                 : 3mn 20s
Overall bit rate                         : 13.6 Mbps
Encoded date                             : UTC 2016-05-12 10:33:52
Tagged date                              : UTC 2016-05-12 10:59:34
Writing library                          : Apple QuickTime

Video
ID                                       : 2
Format                                   : AVC
Format/Info                              : Advanced Video Codec
Format profile                           : Main@L4
Format settings, CABAC                   : No
Format settings, ReFrames                : 2 frames
Codec ID                                 : avc1
Codec ID/Info                            : Advanced Video Coding
Duration                                 : 3mn 20s
Bit rate                                 : 12.0 Mbps
Width                                    : 1 920 pixels
Height                                   : 1 080 pixels
Display aspect ratio                     : 16:9
Frame rate mode                          : Constant
Frame rate                               : 23.976 fps
Color space                              : YUV
Chroma subsampling                       : 4:2:0
Bit depth                                : 8 bits
Scan type                                : Progressive
Bits/(Pixel*Frame)                       : 0.242
Stream size                              : 288 MiB (89%)
Title                                    : Îáðàáîò÷èê âèäåî Apple / Îáðàáîò÷èê ïñåâäîíèìîâ Apple
Language                                 : English
Encoded date                             : UTC 2016-05-12 10:57:23
Tagged date                              : UTC 2016-05-12 10:59:34
Color range                              : Limited
Color primaries                          : BT.709
Transfer characteristics                 : BT.709
Matrix coefficients                      : BT.709

Audio
ID                                       : 1
Format                                   : PCM
Format settings, Endianness              : Little
Format settings, Sign                    : Signed
Codec ID                                 : sowt
Duration                                 : 3mn 20s
Bit rate mode                            : Constant
Bit rate                                 : 1 536 Kbps
Channel(s)                               : 2 channels
Channel positions                        : Front: L R
Sampling rate                            : 48.0 KHz
Bit depth                                : 16 bits
Stream size                              : 36.7 MiB (11%)
Title                                    : Îáðàáîò÷èê çâóêà Apple / Îáðàáîò÷èê ïñåâäîíèìîâ Apple
Language                                 : English
Encoded date                             : UTC 2016-05-12 10:57:23
Tagged date                              : UTC 2016-05-12 10:59:34

Download
[HIDE-REPLY]MEGA[/HIDE-REPLY]
 
  • Like
Reactions: Joshua

Joshua

New Member
Registered
May 22, 2018
6
0
1
33
Iggy Azalea feat. Charli XCX - Fancy (Master-1080p-LPCM)



Genres: Hip-Hop/Rap
Released: Mar 04, 2014​

Code:
Format                                   : MPEG-4
Format profile                           : QuickTime
Codec ID                                 : qt
File size                                : 325 MiB
Duration                                 : 3mn 20s
Overall bit rate                         : 13.6 Mbps
Encoded date                             : UTC 2016-05-12 10:33:52
Tagged date                              : UTC 2016-05-12 10:59:34
Writing library                          : Apple QuickTime

Video
ID                                       : 2
Format                                   : AVC
Format/Info                              : Advanced Video Codec
Format profile                           : Main@L4
Format settings, CABAC                   : No
Format settings, ReFrames                : 2 frames
Codec ID                                 : avc1
Codec ID/Info                            : Advanced Video Coding
Duration                                 : 3mn 20s
Bit rate                                 : 12.0 Mbps
Width                                    : 1 920 pixels
Height                                   : 1 080 pixels
Display aspect ratio                     : 16:9
Frame rate mode                          : Constant
Frame rate                               : 23.976 fps
Color space                              : YUV
Chroma subsampling                       : 4:2:0
Bit depth                                : 8 bits
Scan type                                : Progressive
Bits/(Pixel*Frame)                       : 0.242
Stream size                              : 288 MiB (89%)
Title                                    : Îáðàáîò÷èê âèäåî Apple / Îáðàáîò÷èê ïñåâäîíèìîâ Apple
Language                                 : English
Encoded date                             : UTC 2016-05-12 10:57:23
Tagged date                              : UTC 2016-05-12 10:59:34
Color range                              : Limited
Color primaries                          : BT.709
Transfer characteristics                 : BT.709
Matrix coefficients                      : BT.709

Audio
ID                                       : 1
Format                                   : PCM
Format settings, Endianness              : Little
Format settings, Sign                    : Signed
Codec ID                                 : sowt
Duration                                 : 3mn 20s
Bit rate mode                            : Constant
Bit rate                                 : 1 536 Kbps
Channel(s)                               : 2 channels
Channel positions                        : Front: L R
Sampling rate                            : 48.0 KHz
Bit depth                                : 16 bits
Stream size                              : 36.7 MiB (11%)
Title                                    : Îáðàáîò÷èê çâóêà Apple / Îáðàáîò÷èê ïñåâäîíèìîâ Apple
Language                                 : English
Encoded date                             : UTC 2016-05-12 10:57:23
Tagged date                              : UTC 2016-05-12 10:59:34

Download
***Hidden content cannot be quoted.***
Thnks
 

Nyinyi

Member
Registered
Dec 29, 2018
79
0
6
28
Iggy Azalea feat. Charli XCX - Fancy (Master-1080p-LPCM)



Genres: Hip-Hop/Rap
Released: Mar 04, 2014​

Code:
Format                                   : MPEG-4
Format profile                           : QuickTime
Codec ID                                 : qt
File size                                : 325 MiB
Duration                                 : 3mn 20s
Overall bit rate                         : 13.6 Mbps
Encoded date                             : UTC 2016-05-12 10:33:52
Tagged date                              : UTC 2016-05-12 10:59:34
Writing library                          : Apple QuickTime

Video
ID                                       : 2
Format                                   : AVC
Format/Info                              : Advanced Video Codec
Format profile                           : Main@L4
Format settings, CABAC                   : No
Format settings, ReFrames                : 2 frames
Codec ID                                 : avc1
Codec ID/Info                            : Advanced Video Coding
Duration                                 : 3mn 20s
Bit rate                                 : 12.0 Mbps
Width                                    : 1 920 pixels
Height                                   : 1 080 pixels
Display aspect ratio                     : 16:9
Frame rate mode                          : Constant
Frame rate                               : 23.976 fps
Color space                              : YUV
Chroma subsampling                       : 4:2:0
Bit depth                                : 8 bits
Scan type                                : Progressive
Bits/(Pixel*Frame)                       : 0.242
Stream size                              : 288 MiB (89%)
Title                                    : Îáðàáîò÷èê âèäåî Apple / Îáðàáîò÷èê ïñåâäîíèìîâ Apple
Language                                 : English
Encoded date                             : UTC 2016-05-12 10:57:23
Tagged date                              : UTC 2016-05-12 10:59:34
Color range                              : Limited
Color primaries                          : BT.709
Transfer characteristics                 : BT.709
Matrix coefficients                      : BT.709

Audio
ID                                       : 1
Format                                   : PCM
Format settings, Endianness              : Little
Format settings, Sign                    : Signed
Codec ID                                 : sowt
Duration                                 : 3mn 20s
Bit rate mode                            : Constant
Bit rate                                 : 1 536 Kbps
Channel(s)                               : 2 channels
Channel positions                        : Front: L R
Sampling rate                            : 48.0 KHz
Bit depth                                : 16 bits
Stream size                              : 36.7 MiB (11%)
Title                                    : Îáðàáîò÷èê çâóêà Apple / Îáðàáîò÷èê ïñåâäîíèìîâ Apple
Language                                 : English
Encoded date                             : UTC 2016-05-12 10:57:23
Tagged date                              : UTC 2016-05-12 10:59:34

Download
***Hidden content cannot be quoted.***
Hi
 

LOOOOL

Member
Registered
Dec 2, 2018
73
2
8
23
dx
Iggy Azalea feat. Charli XCX - Fancy (Master-1080p-LPCM)



Genres: Hip-Hop/Rap
Released: Mar 04, 2014​

Code:
Format                                   : MPEG-4
Format profile                           : QuickTime
Codec ID                                 : qt
File size                                : 325 MiB
Duration                                 : 3mn 20s
Overall bit rate                         : 13.6 Mbps
Encoded date                             : UTC 2016-05-12 10:33:52
Tagged date                              : UTC 2016-05-12 10:59:34
Writing library                          : Apple QuickTime

Video
ID                                       : 2
Format                                   : AVC
Format/Info                              : Advanced Video Codec
Format profile                           : Main@L4
Format settings, CABAC                   : No
Format settings, ReFrames                : 2 frames
Codec ID                                 : avc1
Codec ID/Info                            : Advanced Video Coding
Duration                                 : 3mn 20s
Bit rate                                 : 12.0 Mbps
Width                                    : 1 920 pixels
Height                                   : 1 080 pixels
Display aspect ratio                     : 16:9
Frame rate mode                          : Constant
Frame rate                               : 23.976 fps
Color space                              : YUV
Chroma subsampling                       : 4:2:0
Bit depth                                : 8 bits
Scan type                                : Progressive
Bits/(Pixel*Frame)                       : 0.242
Stream size                              : 288 MiB (89%)
Title                                    : Îáðàáîò÷èê âèäåî Apple / Îáðàáîò÷èê ïñåâäîíèìîâ Apple
Language                                 : English
Encoded date                             : UTC 2016-05-12 10:57:23
Tagged date                              : UTC 2016-05-12 10:59:34
Color range                              : Limited
Color primaries                          : BT.709
Transfer characteristics                 : BT.709
Matrix coefficients                      : BT.709

Audio
ID                                       : 1
Format                                   : PCM
Format settings, Endianness              : Little
Format settings, Sign                    : Signed
Codec ID                                 : sowt
Duration                                 : 3mn 20s
Bit rate mode                            : Constant
Bit rate                                 : 1 536 Kbps
Channel(s)                               : 2 channels
Channel positions                        : Front: L R
Sampling rate                            : 48.0 KHz
Bit depth                                : 16 bits
Stream size                              : 36.7 MiB (11%)
Title                                    : Îáðàáîò÷èê çâóêà Apple / Îáðàáîò÷èê ïñåâäîíèìîâ Apple
Language                                 : English
Encoded date                             : UTC 2016-05-12 10:57:23
Tagged date                              : UTC 2016-05-12 10:59:34

Download
***Hidden content cannot be quoted.***
 

Icaka03

Member
Registered
May 11, 2019
99
1
8
24
Iggy Azalea feat. Charli XCX - Fancy (Master-1080p-LPCM)



Genres: Hip-Hop/Rap
Released: Mar 04, 2014​

Code:
Format                                   : MPEG-4
Format profile                           : QuickTime
Codec ID                                 : qt
File size                                : 325 MiB
Duration                                 : 3mn 20s
Overall bit rate                         : 13.6 Mbps
Encoded date                             : UTC 2016-05-12 10:33:52
Tagged date                              : UTC 2016-05-12 10:59:34
Writing library                          : Apple QuickTime

Video
ID                                       : 2
Format                                   : AVC
Format/Info                              : Advanced Video Codec
Format profile                           : Main@L4
Format settings, CABAC                   : No
Format settings, ReFrames                : 2 frames
Codec ID                                 : avc1
Codec ID/Info                            : Advanced Video Coding
Duration                                 : 3mn 20s
Bit rate                                 : 12.0 Mbps
Width                                    : 1 920 pixels
Height                                   : 1 080 pixels
Display aspect ratio                     : 16:9
Frame rate mode                          : Constant
Frame rate                               : 23.976 fps
Color space                              : YUV
Chroma subsampling                       : 4:2:0
Bit depth                                : 8 bits
Scan type                                : Progressive
Bits/(Pixel*Frame)                       : 0.242
Stream size                              : 288 MiB (89%)
Title                                    : Îáðàáîò÷èê âèäåî Apple / Îáðàáîò÷èê ïñåâäîíèìîâ Apple
Language                                 : English
Encoded date                             : UTC 2016-05-12 10:57:23
Tagged date                              : UTC 2016-05-12 10:59:34
Color range                              : Limited
Color primaries                          : BT.709
Transfer characteristics                 : BT.709
Matrix coefficients                      : BT.709

Audio
ID                                       : 1
Format                                   : PCM
Format settings, Endianness              : Little
Format settings, Sign                    : Signed
Codec ID                                 : sowt
Duration                                 : 3mn 20s
Bit rate mode                            : Constant
Bit rate                                 : 1 536 Kbps
Channel(s)                               : 2 channels
Channel positions                        : Front: L R
Sampling rate                            : 48.0 KHz
Bit depth                                : 16 bits
Stream size                              : 36.7 MiB (11%)
Title                                    : Îáðàáîò÷èê çâóêà Apple / Îáðàáîò÷èê ïñåâäîíèìîâ Apple
Language                                 : English
Encoded date                             : UTC 2016-05-12 10:57:23
Tagged date                              : UTC 2016-05-12 10:59:34

Download
***Hidden content cannot be quoted.***
thanks
 

Raj

Member
Registered
Jul 3, 2019
67
0
6
29
Iggy Azalea feat. Charli XCX - Fancy (Master-1080p-LPCM)



Genres: Hip-Hop/Rap
Released: Mar 04, 2014​

Code:
Format                                   : MPEG-4
Format profile                           : QuickTime
Codec ID                                 : qt
File size                                : 325 MiB
Duration                                 : 3mn 20s
Overall bit rate                         : 13.6 Mbps
Encoded date                             : UTC 2016-05-12 10:33:52
Tagged date                              : UTC 2016-05-12 10:59:34
Writing library                          : Apple QuickTime

Video
ID                                       : 2
Format                                   : AVC
Format/Info                              : Advanced Video Codec
Format profile                           : Main@L4
Format settings, CABAC                   : No
Format settings, ReFrames                : 2 frames
Codec ID                                 : avc1
Codec ID/Info                            : Advanced Video Coding
Duration                                 : 3mn 20s
Bit rate                                 : 12.0 Mbps
Width                                    : 1 920 pixels
Height                                   : 1 080 pixels
Display aspect ratio                     : 16:9
Frame rate mode                          : Constant
Frame rate                               : 23.976 fps
Color space                              : YUV
Chroma subsampling                       : 4:2:0
Bit depth                                : 8 bits
Scan type                                : Progressive
Bits/(Pixel*Frame)                       : 0.242
Stream size                              : 288 MiB (89%)
Title                                    : Îáðàáîò÷èê âèäåî Apple / Îáðàáîò÷èê ïñåâäîíèìîâ Apple
Language                                 : English
Encoded date                             : UTC 2016-05-12 10:57:23
Tagged date                              : UTC 2016-05-12 10:59:34
Color range                              : Limited
Color primaries                          : BT.709
Transfer characteristics                 : BT.709
Matrix coefficients                      : BT.709

Audio
ID                                       : 1
Format                                   : PCM
Format settings, Endianness              : Little
Format settings, Sign                    : Signed
Codec ID                                 : sowt
Duration                                 : 3mn 20s
Bit rate mode                            : Constant
Bit rate                                 : 1 536 Kbps
Channel(s)                               : 2 channels
Channel positions                        : Front: L R
Sampling rate                            : 48.0 KHz
Bit depth                                : 16 bits
Stream size                              : 36.7 MiB (11%)
Title                                    : Îáðàáîò÷èê çâóêà Apple / Îáðàáîò÷èê ïñåâäîíèìîâ Apple
Language                                 : English
Encoded date                             : UTC 2016-05-12 10:57:23
Tagged date                              : UTC 2016-05-12 10:59:34

Download
***Hidden content cannot be quoted.***
Thank you very much!