1. If this is your first visit, be sure to check out the FAQ by clicking the link above. You may have to register before you can access the full forum. Follow the link above to Register. To start viewing messages, select the forum that you want to visit from the selection below.
    Dismiss Notice

Master Iggy Azalea feat. Charli XCX - Fancy (Master-1080p-LPCM)

Discussion in 'High Definition' started by NCURBAN, Jun 28, 2016.

  1. NCURBAN

    NCURBAN Well-Known Member Administrative

    Joined:
    May 25, 2016
    Messages:
    2,869
    Likes Received:
    1,285
    Trophy Points:
    113
    Iggy Azalea feat. Charli XCX - Fancy (Master-1080p-LPCM)

    [​IMG]

    Genres: Hip-Hop/Rap
    Released: Mar 04, 2014​

    Code:
    Format                                   : MPEG-4
    Format profile                           : QuickTime
    Codec ID                                 : qt 
    File size                                : 325 MiB
    Duration                                 : 3mn 20s
    Overall bit rate                         : 13.6 Mbps
    Encoded date                             : UTC 2016-05-12 10:33:52
    Tagged date                              : UTC 2016-05-12 10:59:34
    Writing library                          : Apple QuickTime
    
    Video
    ID                                       : 2
    Format                                   : AVC
    Format/Info                              : Advanced Video Codec
    Format profile                           : Main@L4
    Format settings, CABAC                   : No
    Format settings, ReFrames                : 2 frames
    Codec ID                                 : avc1
    Codec ID/Info                            : Advanced Video Coding
    Duration                                 : 3mn 20s
    Bit rate                                 : 12.0 Mbps
    Width                                    : 1 920 pixels
    Height                                   : 1 080 pixels
    Display aspect ratio                     : 16:9
    Frame rate mode                          : Constant
    Frame rate                               : 23.976 fps
    Color space                              : YUV
    Chroma subsampling                       : 4:2:0
    Bit depth                                : 8 bits
    Scan type                                : Progressive
    Bits/(Pixel*Frame)                       : 0.242
    Stream size                              : 288 MiB (89%)
    Title                                    : Îáðàáîò÷èê âèäåî Apple / Îáðàáîò÷èê ïñåâäîíèìîâ Apple
    Language                                 : English
    Encoded date                             : UTC 2016-05-12 10:57:23
    Tagged date                              : UTC 2016-05-12 10:59:34
    Color range                              : Limited
    Color primaries                          : BT.709
    Transfer characteristics                 : BT.709
    Matrix coefficients                      : BT.709
    
    Audio
    ID                                       : 1
    Format                                   : PCM
    Format settings, Endianness              : Little
    Format settings, Sign                    : Signed
    Codec ID                                 : sowt
    Duration                                 : 3mn 20s
    Bit rate mode                            : Constant
    Bit rate                                 : 1 536 Kbps
    Channel(s)                               : 2 channels
    Channel positions                        : Front: L R
    Sampling rate                            : 48.0 KHz
    Bit depth                                : 16 bits
    Stream size                              : 36.7 MiB (11%)
    Title                                    : Îáðàáîò÷èê çâóêà Apple / Îáðàáîò÷èê ïñåâäîíèìîâ Apple
    Language                                 : English
    Encoded date                             : UTC 2016-05-12 10:57:23
    Tagged date                              : UTC 2016-05-12 10:59:34

    Download
    Hidden Content:
    You must reply before you can see the hidden data contained here.
     
    Joshua likes this.
  2. Loading...


  3. Rob

    Rob Member Registered

    Joined:
    Jun 14, 2018
    Messages:
    544
    Likes Received:
    0
    Trophy Points:
    16
    thank you
     
  4. Mustafa Poyraz

    Mustafa Poyraz Member Registered

    Joined:
    Jul 5, 2018
    Messages:
    37
    Likes Received:
    0
    Trophy Points:
    6
    thnks bro
     
  5. fzzxxx

    fzzxxx New Member Registered

    Joined:
    Jul 27, 2018
    Messages:
    7
    Likes Received:
    0
    Trophy Points:
    1
    thanks
     
  6. RiverPhoenix

    RiverPhoenix New Member Registered

    Joined:
    Oct 24, 2017
    Messages:
    14
    Likes Received:
    0
    Trophy Points:
    1
  7. Joshua

    Joshua New Member Registered

    Joined:
    May 22, 2018
    Messages:
    6
    Likes Received:
    0
    Trophy Points:
    1
    Thnks
     
  8. jorjais

    jorjais Member Registered

    Joined:
    Mar 17, 2018
    Messages:
    88
    Likes Received:
    0
    Trophy Points:
    6
    thANKS
     
  9. nickx000x

    nickx000x New Member Registered

    Joined:
    Nov 3, 2018
    Messages:
    11
    Likes Received:
    0
    Trophy Points:
    1
    Been looking for this for a while :) Thanks a bunch.
     
  10. JackieJ

    JackieJ New Member Registered

    Joined:
    Nov 5, 2018
    Messages:
    6
    Likes Received:
    0
    Trophy Points:
    1
    thanks
     
  11. dylsrils

    dylsrils New Member Registered

    Joined:
    Nov 16, 2018
    Messages:
    5
    Likes Received:
    0
    Trophy Points:
    1
    thank ya
     
  12. w1563

    w1563 New Member Registered

    Joined:
    Dec 15, 2018
    Messages:
    9
    Likes Received:
    0
    Trophy Points:
    1
    thanks
     
  13. Srema arub

    Srema arub New Member Registered

    Joined:
    Dec 27, 2018
    Messages:
    22
    Likes Received:
    0
    Trophy Points:
    1
  14. Nyinyi

    Nyinyi Member Registered

    Joined:
    Dec 29, 2018
    Messages:
    68
    Likes Received:
    0
    Trophy Points:
    6
    Hi
     
  15. lopapata

    lopapata New Member Registered

    Joined:
    Oct 10, 2018
    Messages:
    3
    Likes Received:
    0
    Trophy Points:
    1
    thanks
     
  16. iamunkwn04

    iamunkwn04 Member Registered

    Joined:
    Jan 27, 2019
    Messages:
    94
    Likes Received:
    0
    Trophy Points:
    6
  17. Rendy Maini

    Rendy Maini Member Registered

    Joined:
    Oct 26, 2018
    Messages:
    315
    Likes Received:
    0
    Trophy Points:
    16
  18. LOOOOL

    LOOOOL Member Registered

    Joined:
    Dec 2, 2018
    Messages:
    71
    Likes Received:
    0
    Trophy Points:
    6
    dx
     
  19. Icaka03

    Icaka03 Member Registered

    Joined:
    May 11, 2019
    Messages:
    86
    Likes Received:
    0
    Trophy Points:
    6
    thanks
     
  20. Quintain

    Quintain New Member Registered

    Joined:
    Jun 29, 2019
    Messages:
    8
    Likes Received:
    0
    Trophy Points:
    1
    Thanks! HAHHAHAHAHAHHAHA
     
  21. Raj

    Raj Member Registered

    Joined:
    Jul 3, 2019
    Messages:
    67
    Likes Received:
    0
    Trophy Points:
    6
    Thank you very much!