HDTV Iggy Azalea - Summer Concert Series Good Morning America 2016 [HDTV-720p]-TrollHD

NCURBAN

Well-Known Member
Administrative
May 25, 2016
3,347
3,845
113
Iggy Azalea - Summer Concert Series Good Morning America 2016 [HDTV-720p]-TrollHD


Setlist:
  1. Team
  2. Azillion
  3. Black Widow
  4. Work
  5. Fancy
Code:
Format                                   : MPEG-TS
File size                                : 1.64 GiB
Duration                                 : 16mn 24s
Overall bit rate mode                    : Variable
Overall bit rate                         : 14.3 Mbps
Movie name                               : GOOD MORNING AMERICA
Law rating                               : None

Video
ID                                       : 7571 (0x1D93)
Menu ID                                  : 1029 (0x405)
Format                                   : MPEG Video
Format version                           : Version 2
Format profile                           : Main@High
Format settings, BVOP                    : Yes
Format settings, Matrix                  : Custom
Format settings, GOP                     : Variable
Codec ID                                 : 2
Duration                                 : 16mn 24s
Bit rate mode                            : Variable
Bit rate                                 : 13.1 Mbps
Maximum bit rate                         : 24.0 Mbps
Width                                    : 1 280 pixels
Height                                   : 720 pixels
Display aspect ratio                     : 16:9
Active Format Description                : Letterbox 16:9 image
Frame rate                               : 59.940 fps
Color space                              : YUV
Chroma subsampling                       : 4:2:0
Bit depth                                : 8 bits
Scan type                                : Progressive
Compression mode                         : Lossy
Bits/(Pixel*Frame)                       : 0.238
Time code of first frame                 : 00:00:00;00
Time code source                         : Group of pictures header
GOP, Open/Closed                         : Open
Stream size                              : 1.50 GiB (92%)

Audio #1
ID                                       : 7572 (0x1D94)
Menu ID                                  : 1029 (0x405)
Format                                   : AC-3
Format/Info                              : Audio Coding 3
Mode extension                           : CM (complete main)
Format settings, Endianness              : Big
Codec ID                                 : 129
Duration                                 : 16mn 24s
Bit rate mode                            : Constant
Bit rate                                 : 384 Kbps
Channel(s)                               : 6 channels
Channel positions                        : Front: L C R, Side: L R, LFE
Sampling rate                            : 48.0 KHz
Compression mode                         : Lossy
Delay relative to video                  : 23ms
Stream size                              : 45.1 MiB (3%)
Language                                 : English

Audio #2
ID                                       : 7573 (0x1D95)
Menu ID                                  : 1029 (0x405)
Format                                   : AC-3
Format/Info                              : Audio Coding 3
Mode extension                           : CM (complete main)
Format settings, Endianness              : Big
Codec ID                                 : 129
Duration                                 : 16mn 24s
Bit rate mode                            : Constant
Bit rate                                 : 96.0 Kbps
Channel(s)                               : 2 channels
Channel positions                        : Front: L R
Sampling rate                            : 48.0 KHz
Compression mode                         : Lossy
Delay relative to video                  : 6ms
Stream size                              : 11.3 MiB (1%)
Language                                 : Spanish

Download
[HIDE-REPLY]MEGA[/HIDE-REPLY]