HDTV James Blunt - All The Lost Souls Tour 2008 (HDTV-1080i)

NCURBAN

Well-Known Member
Administrative
May 25, 2016
3,358
4,155
113
James Blunt - All The Lost Souls Tour 2008 (HDTV-1080i)


Setlist:
  1. Give Me Some Love
  2. Billy
  3. High
  4. I Really Want You
  5. Carry You Home
  6. I'll Take Everything
  7. Goodbye My Lover
  8. No Bravery
  9. Breakfast in America (Supertramp cover)
  10. You're Beautiful
  11. Shine On
  12. Annie
  13. Out of My Mind
  14. Wisemen
  15. So Long, Jimmy
  16. One of the Brightest Stars
  17. Same Mistake
  18. 1973
Code:
Format                                   : MPEG-TS
File size                                : 4.16 GiB
Duration                                 : 1h 43mn
Overall bit rate mode                    : Variable
Overall bit rate                         : 5 737 Kbps

Video
ID                                       : 2002 (0x7D2)
Menu ID                                  : 1 (0x1)
Format                                   : AVC
Format/Info                              : Advanced Video Codec
Format profile                           : Main@L4
Format settings, CABAC                   : Yes
Format settings, ReFrames                : 4 frames
Codec ID                                 : 27
Duration                                 : 1h 43mn
Bit rate                                 : 5 195 Kbps
Width                                    : 1 440 pixels
Height                                   : 1 080 pixels
Display aspect ratio                     : 16:9
Frame rate                               : 25.000 fps
Color space                              : YUV
Chroma subsampling                       : 4:2:0
Bit depth                                : 8 bits
Scan type                                : MBAFF
Scan order                               : Top Field First
Bits/(Pixel*Frame)                       : 0.134
Stream size                              : 3.77 GiB (91%)
Color range                              : Limited
Color primaries                          : BT.709
Transfer characteristics                 : BT.709
Matrix coefficients                      : BT.709

Audio
ID                                       : 3002 (0xBBA)
Menu ID                                  : 1 (0x1)
Format                                   : MPEG Audio
Format version                           : Version 1
Format profile                           : Layer 2
Mode                                     : Dual mono
Codec ID                                 : 3
Duration                                 : 1h 43mn
Bit rate mode                            : Constant
Bit rate                                 : 256 Kbps
Channel(s)                               : 2 channels
Sampling rate                            : 48.0 KHz
Compression mode                         : Lossy
Stream size                              : 190 MiB (4%)
Language                                 : English

Download
[HIDE-REPLY]MEGA[/HIDE-REPLY]