BLU-RAY Jennifer Lopez feat. Lil Wayne - I'm Into You (PCM-Bluray-1080p-Abdi)

NCURBAN

Well-Known Member
Administrative
May 25, 2016
3,347
3,859
113
Jennifer Lopez feat. Lil Wayne - I'm Into You (PCM-Bluray-1080p-Abdi)


Geners: Pop
Released: May 02, 2011
Copyright: ℗ 2011 The Island Def Jam Music Group
Code:
Format                                   : BDAV
Format/Info                              : Blu-ray Video
File size                                : 1.05 GiB
Duration                                 : 4 min 19 s
Overall bit rate mode                    : Variable
Overall bit rate                         : 34.7 Mb/s
Maximum Overall bit rate                 : 35.5 Mb/s

Video
ID                                       : 4113 (0x1011)
Menu ID                                  : 1 (0x1)
Format                                   : AVC
Format/Info                              : Advanced Video Codec
Format profile                           : High@L5.1
Format settings, CABAC                   : Yes
Format settings, ReFrames                : 3 frames
Codec ID                                 : 27
Duration                                 : 4 min 19 s
Bit rate mode                            : Variable
Bit rate                                 : 28.7 Mb/s
Nominal bit rate                         : 35.0 Mb/s
Maximum bit rate                         : 40.0 Mb/s
Width                                    : 1 920 pixels
Height                                   : 1 080 pixels
Display aspect ratio                     : 16:9
Frame rate mode                          : Variable
Color space                              : YUV
Chroma subsampling                       : 4:2:0
Bit depth                                : 8 bits
Scan type                                : Progressive
Stream size                              : 888 MiB (83%)
Writing library                          : x264 core 115
Encoding settings                        : cabac=1 / ref=3 / deblock=1:0:0 / analyse=0x3:0x113 / me=hex / subme=7 / psy=1 / psy_rd=1.00:0.00 / mixed_ref=1 / me_range=16 / chroma_me=1 / trellis=1 / 8x8dct=1 / cqm=0 / deadzone=21,11 / fast_pskip=1 / chroma_qp_offset=-2 / threads=1 / sliced_threads=0 / nr=0 / decimate=1 / interlaced=0 / bluray_compat=0 / constrained_intra=0 / bframes=3 / b_pyramid=0 / b_adapt=1 / b_bias=0 / direct=1 / weightb=1 / open_gop=0 / weightp=2 / keyint=250 / keyint_min=25 / scenecut=40 / intra_refresh=0 / rc_lookahead=40 / rc=abr / mbtree=1 / bitrate=35000 / ratetol=1.0 / qcomp=0.60 / qpmin=10 / qpmax=51 / qpstep=4 / ip_ratio=1.41 / aq=1:1.0

Audio
ID                                       : 4352 (0x1100)
Menu ID                                  : 1 (0x1)
Format                                   : PCM
Format settings, Endianness              : Big
Format settings, Sign                    : Signed
Muxing mode                              : Blu-ray
Codec ID                                 : 128
Duration                                 : 4 min 19 s
Bit rate mode                            : Constant
Bit rate                                 : 4 608 kb/s
Channel(s)                               : 2 channels
Channel positions                        : Front: L R
Sampling rate                            : 96.0 kHz
Bit depth                                : 24 bits
Stream size                              : 142 MiB (13%)
Language                                 : English
Download
You must reply before you can see the hidden data contained here.
 

Natt

Member
Registered
Jun 11, 2018
56
0
6
21
Jennifer Lopez feat. Lil Wayne - I'm Into You (PCM-Bluray-1080p-Abdi)




Code:
Format                                   : BDAV
Format/Info                              : Blu-ray Video
File size                                : 1.05 GiB
Duration                                 : 4 min 19 s
Overall bit rate mode                    : Variable
Overall bit rate                         : 34.7 Mb/s
Maximum Overall bit rate                 : 35.5 Mb/s

Video
ID                                       : 4113 (0x1011)
Menu ID                                  : 1 (0x1)
Format                                   : AVC
Format/Info                              : Advanced Video Codec
Format profile                           : High@L5.1
Format settings, CABAC                   : Yes
Format settings, ReFrames                : 3 frames
Codec ID                                 : 27
Duration                                 : 4 min 19 s
Bit rate mode                            : Variable
Bit rate                                 : 28.7 Mb/s
Nominal bit rate                         : 35.0 Mb/s
Maximum bit rate                         : 40.0 Mb/s
Width                                    : 1 920 pixels
Height                                   : 1 080 pixels
Display aspect ratio                     : 16:9
Frame rate mode                          : Variable
Color space                              : YUV
Chroma subsampling                       : 4:2:0
Bit depth                                : 8 bits
Scan type                                : Progressive
Stream size                              : 888 MiB (83%)
Writing library                          : x264 core 115
Encoding settings                        : cabac=1 / ref=3 / deblock=1:0:0 / analyse=0x3:0x113 / me=hex / subme=7 / psy=1 / psy_rd=1.00:0.00 / mixed_ref=1 / me_range=16 / chroma_me=1 / trellis=1 / 8x8dct=1 / cqm=0 / deadzone=21,11 / fast_pskip=1 / chroma_qp_offset=-2 / threads=1 / sliced_threads=0 / nr=0 / decimate=1 / interlaced=0 / bluray_compat=0 / constrained_intra=0 / bframes=3 / b_pyramid=0 / b_adapt=1 / b_bias=0 / direct=1 / weightb=1 / open_gop=0 / weightp=2 / keyint=250 / keyint_min=25 / scenecut=40 / intra_refresh=0 / rc_lookahead=40 / rc=abr / mbtree=1 / bitrate=35000 / ratetol=1.0 / qcomp=0.60 / qpmin=10 / qpmax=51 / qpstep=4 / ip_ratio=1.41 / aq=1:1.0

Audio
ID                                       : 4352 (0x1100)
Menu ID                                  : 1 (0x1)
Format                                   : PCM
Format settings, Endianness              : Big
Format settings, Sign                    : Signed
Muxing mode                              : Blu-ray
Codec ID                                 : 128
Duration                                 : 4 min 19 s
Bit rate mode                            : Constant
Bit rate                                 : 4 608 kb/s
Channel(s)                               : 2 channels
Channel positions                        : Front: L R
Sampling rate                            : 96.0 kHz
Bit depth                                : 24 bits
Stream size                              : 142 MiB (13%)
Language                                 : English
Download
***Hidden content cannot be quoted.***
 

jorjais

Member
Registered
Mar 17, 2018
88
1
8
46
Jennifer Lopez feat. Lil Wayne - I'm Into You (PCM-Bluray-1080p-Abdi)




Code:
Format                                   : BDAV
Format/Info                              : Blu-ray Video
File size                                : 1.05 GiB
Duration                                 : 4 min 19 s
Overall bit rate mode                    : Variable
Overall bit rate                         : 34.7 Mb/s
Maximum Overall bit rate                 : 35.5 Mb/s

Video
ID                                       : 4113 (0x1011)
Menu ID                                  : 1 (0x1)
Format                                   : AVC
Format/Info                              : Advanced Video Codec
Format profile                           : High@L5.1
Format settings, CABAC                   : Yes
Format settings, ReFrames                : 3 frames
Codec ID                                 : 27
Duration                                 : 4 min 19 s
Bit rate mode                            : Variable
Bit rate                                 : 28.7 Mb/s
Nominal bit rate                         : 35.0 Mb/s
Maximum bit rate                         : 40.0 Mb/s
Width                                    : 1 920 pixels
Height                                   : 1 080 pixels
Display aspect ratio                     : 16:9
Frame rate mode                          : Variable
Color space                              : YUV
Chroma subsampling                       : 4:2:0
Bit depth                                : 8 bits
Scan type                                : Progressive
Stream size                              : 888 MiB (83%)
Writing library                          : x264 core 115
Encoding settings                        : cabac=1 / ref=3 / deblock=1:0:0 / analyse=0x3:0x113 / me=hex / subme=7 / psy=1 / psy_rd=1.00:0.00 / mixed_ref=1 / me_range=16 / chroma_me=1 / trellis=1 / 8x8dct=1 / cqm=0 / deadzone=21,11 / fast_pskip=1 / chroma_qp_offset=-2 / threads=1 / sliced_threads=0 / nr=0 / decimate=1 / interlaced=0 / bluray_compat=0 / constrained_intra=0 / bframes=3 / b_pyramid=0 / b_adapt=1 / b_bias=0 / direct=1 / weightb=1 / open_gop=0 / weightp=2 / keyint=250 / keyint_min=25 / scenecut=40 / intra_refresh=0 / rc_lookahead=40 / rc=abr / mbtree=1 / bitrate=35000 / ratetol=1.0 / qcomp=0.60 / qpmin=10 / qpmax=51 / qpstep=4 / ip_ratio=1.41 / aq=1:1.0

Audio
ID                                       : 4352 (0x1100)
Menu ID                                  : 1 (0x1)
Format                                   : PCM
Format settings, Endianness              : Big
Format settings, Sign                    : Signed
Muxing mode                              : Blu-ray
Codec ID                                 : 128
Duration                                 : 4 min 19 s
Bit rate mode                            : Constant
Bit rate                                 : 4 608 kb/s
Channel(s)                               : 2 channels
Channel positions                        : Front: L R
Sampling rate                            : 96.0 kHz
Bit depth                                : 24 bits
Stream size                              : 142 MiB (13%)
Language                                 : English
Download
***Hidden content cannot be quoted.***
thanks
 

Kastriot Selimi

New Member
Registered
Dec 8, 2018
3
0
1
28
Jennifer Lopez feat. Lil Wayne - I'm Into You (PCM-Bluray-1080p-Abdi)




Code:
Format                                   : BDAV
Format/Info                              : Blu-ray Video
File size                                : 1.05 GiB
Duration                                 : 4 min 19 s
Overall bit rate mode                    : Variable
Overall bit rate                         : 34.7 Mb/s
Maximum Overall bit rate                 : 35.5 Mb/s

Video
ID                                       : 4113 (0x1011)
Menu ID                                  : 1 (0x1)
Format                                   : AVC
Format/Info                              : Advanced Video Codec
Format profile                           : High@L5.1
Format settings, CABAC                   : Yes
Format settings, ReFrames                : 3 frames
Codec ID                                 : 27
Duration                                 : 4 min 19 s
Bit rate mode                            : Variable
Bit rate                                 : 28.7 Mb/s
Nominal bit rate                         : 35.0 Mb/s
Maximum bit rate                         : 40.0 Mb/s
Width                                    : 1 920 pixels
Height                                   : 1 080 pixels
Display aspect ratio                     : 16:9
Frame rate mode                          : Variable
Color space                              : YUV
Chroma subsampling                       : 4:2:0
Bit depth                                : 8 bits
Scan type                                : Progressive
Stream size                              : 888 MiB (83%)
Writing library                          : x264 core 115
Encoding settings                        : cabac=1 / ref=3 / deblock=1:0:0 / analyse=0x3:0x113 / me=hex / subme=7 / psy=1 / psy_rd=1.00:0.00 / mixed_ref=1 / me_range=16 / chroma_me=1 / trellis=1 / 8x8dct=1 / cqm=0 / deadzone=21,11 / fast_pskip=1 / chroma_qp_offset=-2 / threads=1 / sliced_threads=0 / nr=0 / decimate=1 / interlaced=0 / bluray_compat=0 / constrained_intra=0 / bframes=3 / b_pyramid=0 / b_adapt=1 / b_bias=0 / direct=1 / weightb=1 / open_gop=0 / weightp=2 / keyint=250 / keyint_min=25 / scenecut=40 / intra_refresh=0 / rc_lookahead=40 / rc=abr / mbtree=1 / bitrate=35000 / ratetol=1.0 / qcomp=0.60 / qpmin=10 / qpmax=51 / qpstep=4 / ip_ratio=1.41 / aq=1:1.0

Audio
ID                                       : 4352 (0x1100)
Menu ID                                  : 1 (0x1)
Format                                   : PCM
Format settings, Endianness              : Big
Format settings, Sign                    : Signed
Muxing mode                              : Blu-ray
Codec ID                                 : 128
Duration                                 : 4 min 19 s
Bit rate mode                            : Constant
Bit rate                                 : 4 608 kb/s
Channel(s)                               : 2 channels
Channel positions                        : Front: L R
Sampling rate                            : 96.0 kHz
Bit depth                                : 24 bits
Stream size                              : 142 MiB (13%)
Language                                 : English
Download
***Hidden content cannot be quoted.***
Thank You
 

Nyinyi

Member
Registered
Dec 29, 2018
79
0
6
28
H
Jennifer Lopez feat. Lil Wayne - I'm Into You (PCM-Bluray-1080p-Abdi)




Code:
Format                                   : BDAV
Format/Info                              : Blu-ray Video
File size                                : 1.05 GiB
Duration                                 : 4 min 19 s
Overall bit rate mode                    : Variable
Overall bit rate                         : 34.7 Mb/s
Maximum Overall bit rate                 : 35.5 Mb/s

Video
ID                                       : 4113 (0x1011)
Menu ID                                  : 1 (0x1)
Format                                   : AVC
Format/Info                              : Advanced Video Codec
Format profile                           : High@L5.1
Format settings, CABAC                   : Yes
Format settings, ReFrames                : 3 frames
Codec ID                                 : 27
Duration                                 : 4 min 19 s
Bit rate mode                            : Variable
Bit rate                                 : 28.7 Mb/s
Nominal bit rate                         : 35.0 Mb/s
Maximum bit rate                         : 40.0 Mb/s
Width                                    : 1 920 pixels
Height                                   : 1 080 pixels
Display aspect ratio                     : 16:9
Frame rate mode                          : Variable
Color space                              : YUV
Chroma subsampling                       : 4:2:0
Bit depth                                : 8 bits
Scan type                                : Progressive
Stream size                              : 888 MiB (83%)
Writing library                          : x264 core 115
Encoding settings                        : cabac=1 / ref=3 / deblock=1:0:0 / analyse=0x3:0x113 / me=hex / subme=7 / psy=1 / psy_rd=1.00:0.00 / mixed_ref=1 / me_range=16 / chroma_me=1 / trellis=1 / 8x8dct=1 / cqm=0 / deadzone=21,11 / fast_pskip=1 / chroma_qp_offset=-2 / threads=1 / sliced_threads=0 / nr=0 / decimate=1 / interlaced=0 / bluray_compat=0 / constrained_intra=0 / bframes=3 / b_pyramid=0 / b_adapt=1 / b_bias=0 / direct=1 / weightb=1 / open_gop=0 / weightp=2 / keyint=250 / keyint_min=25 / scenecut=40 / intra_refresh=0 / rc_lookahead=40 / rc=abr / mbtree=1 / bitrate=35000 / ratetol=1.0 / qcomp=0.60 / qpmin=10 / qpmax=51 / qpstep=4 / ip_ratio=1.41 / aq=1:1.0

Audio
ID                                       : 4352 (0x1100)
Menu ID                                  : 1 (0x1)
Format                                   : PCM
Format settings, Endianness              : Big
Format settings, Sign                    : Signed
Muxing mode                              : Blu-ray
Codec ID                                 : 128
Duration                                 : 4 min 19 s
Bit rate mode                            : Constant
Bit rate                                 : 4 608 kb/s
Channel(s)                               : 2 channels
Channel positions                        : Front: L R
Sampling rate                            : 96.0 kHz
Bit depth                                : 24 bits
Stream size                              : 142 MiB (13%)
Language                                 : English
Download
***Hidden content cannot be quoted.***
I
 

miamia

Member
Registered
Jan 23, 2019
54
0
6
19
Jennifer Lopez feat. Lil Wayne - I'm Into You (PCM-Bluray-1080p-Abdi)




Code:
Format                                   : BDAV
Format/Info                              : Blu-ray Video
File size                                : 1.05 GiB
Duration                                 : 4 min 19 s
Overall bit rate mode                    : Variable
Overall bit rate                         : 34.7 Mb/s
Maximum Overall bit rate                 : 35.5 Mb/s

Video
ID                                       : 4113 (0x1011)
Menu ID                                  : 1 (0x1)
Format                                   : AVC
Format/Info                              : Advanced Video Codec
Format profile                           : High@L5.1
Format settings, CABAC                   : Yes
Format settings, ReFrames                : 3 frames
Codec ID                                 : 27
Duration                                 : 4 min 19 s
Bit rate mode                            : Variable
Bit rate                                 : 28.7 Mb/s
Nominal bit rate                         : 35.0 Mb/s
Maximum bit rate                         : 40.0 Mb/s
Width                                    : 1 920 pixels
Height                                   : 1 080 pixels
Display aspect ratio                     : 16:9
Frame rate mode                          : Variable
Color space                              : YUV
Chroma subsampling                       : 4:2:0
Bit depth                                : 8 bits
Scan type                                : Progressive
Stream size                              : 888 MiB (83%)
Writing library                          : x264 core 115
Encoding settings                        : cabac=1 / ref=3 / deblock=1:0:0 / analyse=0x3:0x113 / me=hex / subme=7 / psy=1 / psy_rd=1.00:0.00 / mixed_ref=1 / me_range=16 / chroma_me=1 / trellis=1 / 8x8dct=1 / cqm=0 / deadzone=21,11 / fast_pskip=1 / chroma_qp_offset=-2 / threads=1 / sliced_threads=0 / nr=0 / decimate=1 / interlaced=0 / bluray_compat=0 / constrained_intra=0 / bframes=3 / b_pyramid=0 / b_adapt=1 / b_bias=0 / direct=1 / weightb=1 / open_gop=0 / weightp=2 / keyint=250 / keyint_min=25 / scenecut=40 / intra_refresh=0 / rc_lookahead=40 / rc=abr / mbtree=1 / bitrate=35000 / ratetol=1.0 / qcomp=0.60 / qpmin=10 / qpmax=51 / qpstep=4 / ip_ratio=1.41 / aq=1:1.0

Audio
ID                                       : 4352 (0x1100)
Menu ID                                  : 1 (0x1)
Format                                   : PCM
Format settings, Endianness              : Big
Format settings, Sign                    : Signed
Muxing mode                              : Blu-ray
Codec ID                                 : 128
Duration                                 : 4 min 19 s
Bit rate mode                            : Constant
Bit rate                                 : 4 608 kb/s
Channel(s)                               : 2 channels
Channel positions                        : Front: L R
Sampling rate                            : 96.0 kHz
Bit depth                                : 24 bits
Stream size                              : 142 MiB (13%)
Language                                 : English
Download
***Hidden content cannot be quoted.***
thnaks
 

ASIT PATI

Member
Registered
May 9, 2019
32
1
8
41
Jennifer Lopez feat. Lil Wayne - I'm Into You (PCM-Bluray-1080p-Abdi)




Code:
Format                                   : BDAV
Format/Info                              : Blu-ray Video
File size                                : 1.05 GiB
Duration                                 : 4 min 19 s
Overall bit rate mode                    : Variable
Overall bit rate                         : 34.7 Mb/s
Maximum Overall bit rate                 : 35.5 Mb/s

Video
ID                                       : 4113 (0x1011)
Menu ID                                  : 1 (0x1)
Format                                   : AVC
Format/Info                              : Advanced Video Codec
Format profile                           : High@L5.1
Format settings, CABAC                   : Yes
Format settings, ReFrames                : 3 frames
Codec ID                                 : 27
Duration                                 : 4 min 19 s
Bit rate mode                            : Variable
Bit rate                                 : 28.7 Mb/s
Nominal bit rate                         : 35.0 Mb/s
Maximum bit rate                         : 40.0 Mb/s
Width                                    : 1 920 pixels
Height                                   : 1 080 pixels
Display aspect ratio                     : 16:9
Frame rate mode                          : Variable
Color space                              : YUV
Chroma subsampling                       : 4:2:0
Bit depth                                : 8 bits
Scan type                                : Progressive
Stream size                              : 888 MiB (83%)
Writing library                          : x264 core 115
Encoding settings                        : cabac=1 / ref=3 / deblock=1:0:0 / analyse=0x3:0x113 / me=hex / subme=7 / psy=1 / psy_rd=1.00:0.00 / mixed_ref=1 / me_range=16 / chroma_me=1 / trellis=1 / 8x8dct=1 / cqm=0 / deadzone=21,11 / fast_pskip=1 / chroma_qp_offset=-2 / threads=1 / sliced_threads=0 / nr=0 / decimate=1 / interlaced=0 / bluray_compat=0 / constrained_intra=0 / bframes=3 / b_pyramid=0 / b_adapt=1 / b_bias=0 / direct=1 / weightb=1 / open_gop=0 / weightp=2 / keyint=250 / keyint_min=25 / scenecut=40 / intra_refresh=0 / rc_lookahead=40 / rc=abr / mbtree=1 / bitrate=35000 / ratetol=1.0 / qcomp=0.60 / qpmin=10 / qpmax=51 / qpstep=4 / ip_ratio=1.41 / aq=1:1.0

Audio
ID                                       : 4352 (0x1100)
Menu ID                                  : 1 (0x1)
Format                                   : PCM
Format settings, Endianness              : Big
Format settings, Sign                    : Signed
Muxing mode                              : Blu-ray
Codec ID                                 : 128
Duration                                 : 4 min 19 s
Bit rate mode                            : Constant
Bit rate                                 : 4 608 kb/s
Channel(s)                               : 2 channels
Channel positions                        : Front: L R
Sampling rate                            : 96.0 kHz
Bit depth                                : 24 bits
Stream size                              : 142 MiB (13%)
Language                                 : English
Download
***Hidden content cannot be quoted.***
 

ASIT PATI

Member
Registered
May 9, 2019
32
1
8
41
Jennifer Lopez feat. Lil Wayne - I'm Into You (PCM-Bluray-1080p-Abdi)




Code:
Format                                   : BDAV
Format/Info                              : Blu-ray Video
File size                                : 1.05 GiB
Duration                                 : 4 min 19 s
Overall bit rate mode                    : Variable
Overall bit rate                         : 34.7 Mb/s
Maximum Overall bit rate                 : 35.5 Mb/s

Video
ID                                       : 4113 (0x1011)
Menu ID                                  : 1 (0x1)
Format                                   : AVC
Format/Info                              : Advanced Video Codec
Format profile                           : High@L5.1
Format settings, CABAC                   : Yes
Format settings, ReFrames                : 3 frames
Codec ID                                 : 27
Duration                                 : 4 min 19 s
Bit rate mode                            : Variable
Bit rate                                 : 28.7 Mb/s
Nominal bit rate                         : 35.0 Mb/s
Maximum bit rate                         : 40.0 Mb/s
Width                                    : 1 920 pixels
Height                                   : 1 080 pixels
Display aspect ratio                     : 16:9
Frame rate mode                          : Variable
Color space                              : YUV
Chroma subsampling                       : 4:2:0
Bit depth                                : 8 bits
Scan type                                : Progressive
Stream size                              : 888 MiB (83%)
Writing library                          : x264 core 115
Encoding settings                        : cabac=1 / ref=3 / deblock=1:0:0 / analyse=0x3:0x113 / me=hex / subme=7 / psy=1 / psy_rd=1.00:0.00 / mixed_ref=1 / me_range=16 / chroma_me=1 / trellis=1 / 8x8dct=1 / cqm=0 / deadzone=21,11 / fast_pskip=1 / chroma_qp_offset=-2 / threads=1 / sliced_threads=0 / nr=0 / decimate=1 / interlaced=0 / bluray_compat=0 / constrained_intra=0 / bframes=3 / b_pyramid=0 / b_adapt=1 / b_bias=0 / direct=1 / weightb=1 / open_gop=0 / weightp=2 / keyint=250 / keyint_min=25 / scenecut=40 / intra_refresh=0 / rc_lookahead=40 / rc=abr / mbtree=1 / bitrate=35000 / ratetol=1.0 / qcomp=0.60 / qpmin=10 / qpmax=51 / qpstep=4 / ip_ratio=1.41 / aq=1:1.0

Audio
ID                                       : 4352 (0x1100)
Menu ID                                  : 1 (0x1)
Format                                   : PCM
Format settings, Endianness              : Big
Format settings, Sign                    : Signed
Muxing mode                              : Blu-ray
Codec ID                                 : 128
Duration                                 : 4 min 19 s
Bit rate mode                            : Constant
Bit rate                                 : 4 608 kb/s
Channel(s)                               : 2 channels
Channel positions                        : Front: L R
Sampling rate                            : 96.0 kHz
Bit depth                                : 24 bits
Stream size                              : 142 MiB (13%)
Language                                 : English
Download
***Hidden content cannot be quoted.***
 

Icaka03

Member
Registered
May 11, 2019
99
1
8
24
Jennifer Lopez feat. Lil Wayne - I'm Into You (PCM-Bluray-1080p-Abdi)




Code:
Format                                   : BDAV
Format/Info                              : Blu-ray Video
File size                                : 1.05 GiB
Duration                                 : 4 min 19 s
Overall bit rate mode                    : Variable
Overall bit rate                         : 34.7 Mb/s
Maximum Overall bit rate                 : 35.5 Mb/s

Video
ID                                       : 4113 (0x1011)
Menu ID                                  : 1 (0x1)
Format                                   : AVC
Format/Info                              : Advanced Video Codec
Format profile                           : High@L5.1
Format settings, CABAC                   : Yes
Format settings, ReFrames                : 3 frames
Codec ID                                 : 27
Duration                                 : 4 min 19 s
Bit rate mode                            : Variable
Bit rate                                 : 28.7 Mb/s
Nominal bit rate                         : 35.0 Mb/s
Maximum bit rate                         : 40.0 Mb/s
Width                                    : 1 920 pixels
Height                                   : 1 080 pixels
Display aspect ratio                     : 16:9
Frame rate mode                          : Variable
Color space                              : YUV
Chroma subsampling                       : 4:2:0
Bit depth                                : 8 bits
Scan type                                : Progressive
Stream size                              : 888 MiB (83%)
Writing library                          : x264 core 115
Encoding settings                        : cabac=1 / ref=3 / deblock=1:0:0 / analyse=0x3:0x113 / me=hex / subme=7 / psy=1 / psy_rd=1.00:0.00 / mixed_ref=1 / me_range=16 / chroma_me=1 / trellis=1 / 8x8dct=1 / cqm=0 / deadzone=21,11 / fast_pskip=1 / chroma_qp_offset=-2 / threads=1 / sliced_threads=0 / nr=0 / decimate=1 / interlaced=0 / bluray_compat=0 / constrained_intra=0 / bframes=3 / b_pyramid=0 / b_adapt=1 / b_bias=0 / direct=1 / weightb=1 / open_gop=0 / weightp=2 / keyint=250 / keyint_min=25 / scenecut=40 / intra_refresh=0 / rc_lookahead=40 / rc=abr / mbtree=1 / bitrate=35000 / ratetol=1.0 / qcomp=0.60 / qpmin=10 / qpmax=51 / qpstep=4 / ip_ratio=1.41 / aq=1:1.0

Audio
ID                                       : 4352 (0x1100)
Menu ID                                  : 1 (0x1)
Format                                   : PCM
Format settings, Endianness              : Big
Format settings, Sign                    : Signed
Muxing mode                              : Blu-ray
Codec ID                                 : 128
Duration                                 : 4 min 19 s
Bit rate mode                            : Constant
Bit rate                                 : 4 608 kb/s
Channel(s)                               : 2 channels
Channel positions                        : Front: L R
Sampling rate                            : 96.0 kHz
Bit depth                                : 24 bits
Stream size                              : 142 MiB (13%)
Language                                 : English
Download
***Hidden content cannot be quoted.***
thanks