1. If this is your first visit, be sure to check out the FAQ by clicking the link above. You may have to register before you can access the full forum. Follow the link above to Register. To start viewing messages, select the forum that you want to visit from the selection below.
    Dismiss Notice

FEED Jennifer Lopez - I Ain't Your Mama & Let's Get Loud (American Idol 2016 - Final) [Feed-1080i]

Discussion in 'Live Performances & Concerts' started by NCURBAN, Jun 21, 2016.

  1. NCURBAN

    NCURBAN Well-Known Member Administrative

    Joined:
    May 25, 2016
    Messages:
    2,720
    Likes Received:
    959
    Trophy Points:
    113
    Jennifer Lopez - I Ain't Your Mama & Let's Get Loud (American Idol 2016 - Final) [Feed-1080i]-HDMania

    [​IMG]

    Code:
    Format                                   : MPEG-TS
    File size                                : 646 MiB
    Duration                                 : 5mn 52s
    Overall bit rate mode                    : Variable
    Overall bit rate                         : 15.4 Mbps
    
    Video
    ID                                       : 308 (0x134)
    Menu ID                                  : 1 (0x1)
    Format                                   : AVC
    Format/Info                              : Advanced Video Codec
    Format profile                           : Main@L4
    Format settings, CABAC                   : Yes
    Format settings, ReFrames                : 4 frames
    Format settings, GOP                     : M=3, N=12
    Codec ID                                 : 27
    Duration                                 : 5mn 52s
    Bit rate mode                            : Variable
    Bit rate                                 : 13.8 Mbps
    Maximum bit rate                         : 14.1 Mbps
    Width                                    : 1 920 pixels
    Height                                   : 1 080 pixels
    Display aspect ratio                     : 16:9
    Frame rate                               : 25.000 fps
    Color space                              : YUV
    Chroma subsampling                       : 4:2:0
    Bit depth                                : 8 bits
    Scan type                                : MBAFF
    Scan order                               : Top Field First
    Bits/(Pixel*Frame)                       : 0.267
    Stream size                              : 581 MiB (90%)
    Color range                              : Limited
    Color primaries                          : BT.709
    Transfer characteristics                 : BT.709
    Matrix coefficients                      : BT.709
    
    Audio #1
    ID                                       : 256 (0x100)
    Menu ID                                  : 1 (0x1)
    Format                                   : MPEG Audio
    Format version                           : Version 1
    Format profile                           : Layer 2
    Codec ID                                 : 3
    Duration                                 : 5mn 52s
    Bit rate mode                            : Constant
    Bit rate                                 : 384 Kbps
    Channel(s)                               : 2 channels
    Sampling rate                            : 48.0 KHz
    Compression mode                         : Lossy
    Delay relative to video                  : -148ms
    Stream size                              : 16.1 MiB (2%)
    Language                                 : English
    
    Audio #2
    ID                                       : 257 (0x101)
    Menu ID                                  : 1 (0x1)
    Format                                   : MPEG Audio
    Format version                           : Version 1
    Format profile                           : Layer 2
    Codec ID                                 : 3
    Duration                                 : 5mn 52s
    Bit rate mode                            : Constant
    Bit rate                                 : 384 Kbps
    Channel(s)                               : 2 channels
    Sampling rate                            : 48.0 KHz
    Compression mode                         : Lossy
    Delay relative to video                  : -148ms
    Stream size                              : 16.1 MiB (2%)
    Language                                 : English
    

    Download
    Hidden Content:
    You must reply before you can see the hidden data contained here.
     
    Hugoema likes this.
  2. Loading...


  3. Adrlovesjlo

    Adrlovesjlo New Member Registered

    Joined:
    Apr 15, 2018
    Messages:
    3
    Likes Received:
    0
    Trophy Points:
    1
  4. Hugoema

    Hugoema New Member Registered

    Joined:
    Nov 11, 2018
    Messages:
    14
    Likes Received:
    0
    Trophy Points:
    1
    Thanks
     
  5. alimaleklo

    alimaleklo New Member Registered

    Joined:
    Jan 24, 2019
    Messages:
    2
    Likes Received:
    0
    Trophy Points:
    1
    grtyr hrthhrh r
     
  6. Jascha Jaja

    Jascha Jaja Member Registered

    Joined:
    Mar 20, 2019
    Messages:
    48
    Likes Received:
    0
    Trophy Points:
    6
    Thanx for this one :)
     
  7. cesar jr

    cesar jr New Member Registered

    Joined:
    Mar 28, 2019
    Messages:
    23
    Likes Received:
    0
    Trophy Points:
    1
    thank you so much!!!!!