HDTV Jennifer Lopez & Lin-Manuel Miranda - Love Make the World Go Round (Today 2016) [HDTV-1080i]-Talisma

NCURBAN

Well-Known Member
Administrative
May 25, 2016
3,347
3,595
113
Jennifer Lopez & Lin-Manuel Miranda - Love Make the World Go Round (Today 2016) [HDTV-1080i]-Talisma



Code:
Format                                   : MPEG-PS
File size                                : 396 MiB
Duration                                 : 4mn 53s
Overall bit rate mode                    : Variable
Overall bit rate                         : 11.3 Mbps
Law rating                               : N/A

Video
ID                                       : 224 (0xE0)
Format                                   : MPEG Video
Format version                           : Version 2
Format profile                           : Main@High
Format settings, BVOP                    : Yes
Format settings, Matrix                  : Custom
Format settings, GOP                     : M=3, N=15
Format settings, picture structure       : Frame
Duration                                 : 4mn 53s
Bit rate mode                            : Variable
Bit rate                                 : 10.7 Mbps
Maximum bit rate                         : 80.0 Mbps
Width                                    : 1 920 pixels
Height                                   : 1 080 pixels
Display aspect ratio                     : 16:9
Active Format Description                : Full frame 16:9 image
Frame rate                               : 29.970 fps
Color space                              : YUV
Chroma subsampling                       : 4:2:0
Bit depth                                : 8 bits
Scan type                                : Interlaced
Scan order                               : Top Field First
Compression mode                         : Lossy
Bits/(Pixel*Frame)                       : 0.172
Time code of first frame                 : 00:00:00;00
Time code source                         : Group of pictures header
GOP, Open/Closed                         : Closed
Stream size                              : 374 MiB (95%)

Audio
ID                                       : 189 (0xBD)-128 (0x80)
Format                                   : AC-3
Format/Info                              : Audio Coding 3
Mode extension                           : CM (complete main)
Format settings, Endianness              : Big
Muxing mode                              : DVD-Video
Duration                                 : 4mn 53s
Bit rate mode                            : Constant
Bit rate                                 : 384 Kbps
Channel(s)                               : 6 channels
Channel positions                        : Front: L C R, Side: L R, LFE
Sampling rate                            : 48.0 KHz
Compression mode                         : Lossy
Delay relative to video                  : 26ms
Stream size                              : 13.4 MiB (3%)

Text #1
ID                                       : 224 (0xE0)-CC1
Format                                   : EIA-608
Muxing mode                              : A/53 / DTVCC Transport
Muxing mode, more info                   : Muxed in Video #1
Bit rate mode                            : Constant
Stream size                              : 0.00 Byte (0%)

Text #2
ID                                       : 224 (0xE0)-1
Format                                   : EIA-708
Muxing mode                              : A/53 / DTVCC Transport
Muxing mode, more info                   : Muxed in Video #1
Bit rate mode                            : Constant
Stream size                              : 0.00 Byte (0%)

Download
You must reply before you can see the hidden data contained here.