FEED Jess Glynne - Glastonbury 2016 (FEED-1080)-HDMania

NCURBAN

Well-Known Member
Administrative
May 25, 2016
3,347
3,618
113
Jess Glynne - Glastonbury 2016 (FEED-1080)-HDMania.ts


Setlist:
  1. Don't Be So Hard on Yourself
  2. Rather Be (Clean Bandit cover)
  3. No Rights No Wrongs
  4. Gave Me Something
  5. Not Letting Go
  6. My Love
  7. Ain't Got Far to Go/Hotline Bling
  8. Love Me
  9. Right Here
  10. Why Me
  11. Take Me Home
  12. Find Me
  13. Feel For You (Chaka Khan cover)
  14. Hold My Hand

Code:
[LEFT]Format                                   : MPEG-TS
File size                                : 5.56 GiB
Duration                                 : 1h 1mn
Overall bit rate mode                    : Variable
Overall bit rate                         : 12.9 Mbps

Video
ID                                       : 33 (0x21)
Menu ID                                  : 1 (0x1)
Format                                   : AVC
Format/Info                              : Advanced Video Codec
Format profile                           : High@L4.1
Format settings, CABAC                   : Yes
Format settings, ReFrames                : 4 frames
Format settings, GOP                     : M=4, N=32
Codec ID                                 : 27
Duration                                 : 1h 1mn
Bit rate                                 : 11.2 Mbps
Width                                    : 1 920 pixels
Height                                   : 1 080 pixels
Display aspect ratio                     : 16:9
Frame rate                               : 25.000 fps
Standard                                 : PAL
Color space                              : YUV
Chroma subsampling                       : 4:2:0
Bit depth                                : 8 bits
Scan type                                : Interlaced
Scan order                               : Top Field First
Bits/(Pixel*Frame)                       : 0.217
Stream size                              : 4.84 GiB (87%)
Color range                              : Limited
Color primaries                          : BT.709
Transfer characteristics                 : BT.709
Matrix coefficients                      : BT.709

Audio #1
ID                                       : 34 (0x22)
Menu ID                                  : 1 (0x1)
Format                                   : MPEG Audio
Format version                           : Version 1
Format profile                           : Layer 2
Codec ID                                 : 4
Duration                                 : 1h 1mn
Bit rate mode                            : Constant
Bit rate                                 : 256 Kbps
Channel(s)                               : 2 channels
Sampling rate                            : 48.0 KHz
Compression mode                         : Lossy
Delay relative to video                  : 30ms
Stream size                              : 113 MiB (2%)
Language                                 : English
Language, more info                      : Clean effects

Audio #2
ID                                       : 35 (0x23)
Menu ID                                  : 1 (0x1)
Format                                   : MPEG Audio
Format version                           : Version 1
Format profile                           : Layer 2
Codec ID                                 : 4
Duration                                 : 1h 1mn
Bit rate mode                            : Constant
Bit rate                                 : 256 Kbps
Channel(s)                               : 2 channels
Sampling rate                            : 48.0 KHz
Compression mode                         : Lossy
Delay relative to video                  : 30ms
Stream size                              : 113 MiB (2%)
Language                                 : English
Language, more info                      : Clean effects

Audio #3
ID                                       : 36 (0x24)
Menu ID                                  : 1 (0x1)
Format                                   : MPEG Audio
Format version                           : Version 1
Format profile                           : Layer 2
Codec ID                                 : 4
Duration                                 : 1h 1mn
Bit rate mode                            : Constant
Bit rate                                 : 256 Kbps
Channel(s)                               : 2 channels
Sampling rate                            : 48.0 KHz
Compression mode                         : Lossy
Delay relative to video                  : 70ms
Stream size                              : 113 MiB (2%)
Language                                 : English
Language, more info                      : Clean effects

Audio #4
ID                                       : 37 (0x25)
Menu ID                                  : 1 (0x1)
Format                                   : MPEG Audio
Format version                           : Version 1
Format profile                           : Layer 2
Codec ID                                 : 4
Duration                                 : 1h 1mn
Bit rate mode                            : Constant
Bit rate                                 : 256 Kbps
Channel(s)                               : 2 channels
Sampling rate                            : 48.0 KHz
Compression mode                         : Lossy
Delay relative to video                  : 70ms
Stream size                              : 113 MiB (2%)
Language                                 : English
Language, more info                      : Clean effects[/LEFT]

Download
You must reply before you can see the hidden data contained here.