HDTV Justin Bieber - Z100 iHeart Radio Jingle Ball 2016 (HDTV-1080i)-ALANiS

NCURBAN

Well-Known Member
Administrative
May 25, 2016
3,360
4,214
113
Justin Bieber - Z100 iHeart Radio Jingle Ball 2016 (HDTV-1080i)-ALANiS


Gener: Pop
Tour: Z100 iHeart Radio Jingle Ball
At: Madison Square Garden, New York, NY, USA
Date: Dec 09, 2016
Setlist:
Soon...
Code:
Format                                   : MPEG-TS
File size                                : 802 MiB
Duration                                 : 29 min 35 s
Overall bit rate mode                    : Variable
Overall bit rate                         : 3 791 kb/s

Video
ID                                       : 481 (0x1E1)
Menu ID                                  : 1 (0x1)
Format                                   : AVC
Format/Info                              : Advanced Video Codec
Format profile                           : High@L4
Format settings, CABAC                   : Yes
Format settings, ReFrames                : 3 frames
Codec ID                                 : 27
Duration                                 : 29 min 35 s
Bit rate mode                            : Constant
Bit rate                                 : 3 400 kb/s
Width                                    : 1 920 pixels
Height                                   : 1 080 pixels
Display aspect ratio                     : 16:9
Frame rate                               : 29.970 (30000/1001) FPS
Color space                              : YUV
Chroma subsampling                       : 4:2:0
Bit depth                                : 8 bits
Scan type                                : Interlaced
Scan type, store method                  : Separated fields
Scan order                               : Top Field First
Bits/(Pixel*Frame)                       : 0.055
Stream size                              : 722 MiB (90%)
Color range                              : Limited
Color primaries                          : BT.709
Transfer characteristics                 : BT.709
Matrix coefficients                      : BT.709

Audio
ID                                       : 482 (0x1E2)
Menu ID                                  : 1 (0x1)
Format                                   : MPEG Audio
Format version                           : Version 1
Format profile                           : Layer 2
Codec ID                                 : 3
Duration                                 : 29 min 35 s
Bit rate mode                            : Constant
Bit rate                                 : 192 kb/s
Channel(s)                               : 2 channels
Sampling rate                            : 48.0 kHz
Compression mode                         : Lossy
Delay relative to video                  : -67 ms
Stream size                              : 40.6 MiB (5%)
Language                                 : English
Download
You must reply before you can see the hidden data contained here.
 

xxxluotuo

New Member
Registered
Dec 30, 2018
2
0
1
20
Justin Bieber - Z100 iHeart Radio Jingle Ball 2016 (HDTV-1080i)-ALANiS


Setlist:
Soon...
Code:
Format                                   : MPEG-TS
File size                                : 802 MiB
Duration                                 : 29 min 35 s
Overall bit rate mode                    : Variable
Overall bit rate                         : 3 791 kb/s

Video
ID                                       : 481 (0x1E1)
Menu ID                                  : 1 (0x1)
Format                                   : AVC
Format/Info                              : Advanced Video Codec
Format profile                           : High@L4
Format settings, CABAC                   : Yes
Format settings, ReFrames                : 3 frames
Codec ID                                 : 27
Duration                                 : 29 min 35 s
Bit rate mode                            : Constant
Bit rate                                 : 3 400 kb/s
Width                                    : 1 920 pixels
Height                                   : 1 080 pixels
Display aspect ratio                     : 16:9
Frame rate                               : 29.970 (30000/1001) FPS
Color space                              : YUV
Chroma subsampling                       : 4:2:0
Bit depth                                : 8 bits
Scan type                                : Interlaced
Scan type, store method                  : Separated fields
Scan order                               : Top Field First
Bits/(Pixel*Frame)                       : 0.055
Stream size                              : 722 MiB (90%)
Color range                              : Limited
Color primaries                          : BT.709
Transfer characteristics                 : BT.709
Matrix coefficients                      : BT.709

Audio
ID                                       : 482 (0x1E2)
Menu ID                                  : 1 (0x1)
Format                                   : MPEG Audio
Format version                           : Version 1
Format profile                           : Layer 2
Codec ID                                 : 3
Duration                                 : 29 min 35 s
Bit rate mode                            : Constant
Bit rate                                 : 192 kb/s
Channel(s)                               : 2 channels
Sampling rate                            : 48.0 kHz
Compression mode                         : Lossy
Delay relative to video                  : -67 ms
Stream size                              : 40.6 MiB (5%)
Language                                 : English
Download
***Hidden content cannot be quoted.***
thanks
 

Nyinyi

Member
Registered
Dec 29, 2018
79
0
6
28
Goooddddd
Justin Bieber - Z100 iHeart Radio Jingle Ball 2016 (HDTV-1080i)-ALANiS


Setlist:
Soon...
Code:
Format                                   : MPEG-TS
File size                                : 802 MiB
Duration                                 : 29 min 35 s
Overall bit rate mode                    : Variable
Overall bit rate                         : 3 791 kb/s

Video
ID                                       : 481 (0x1E1)
Menu ID                                  : 1 (0x1)
Format                                   : AVC
Format/Info                              : Advanced Video Codec
Format profile                           : High@L4
Format settings, CABAC                   : Yes
Format settings, ReFrames                : 3 frames
Codec ID                                 : 27
Duration                                 : 29 min 35 s
Bit rate mode                            : Constant
Bit rate                                 : 3 400 kb/s
Width                                    : 1 920 pixels
Height                                   : 1 080 pixels
Display aspect ratio                     : 16:9
Frame rate                               : 29.970 (30000/1001) FPS
Color space                              : YUV
Chroma subsampling                       : 4:2:0
Bit depth                                : 8 bits
Scan type                                : Interlaced
Scan type, store method                  : Separated fields
Scan order                               : Top Field First
Bits/(Pixel*Frame)                       : 0.055
Stream size                              : 722 MiB (90%)
Color range                              : Limited
Color primaries                          : BT.709
Transfer characteristics                 : BT.709
Matrix coefficients                      : BT.709

Audio
ID                                       : 482 (0x1E2)
Menu ID                                  : 1 (0x1)
Format                                   : MPEG Audio
Format version                           : Version 1
Format profile                           : Layer 2
Codec ID                                 : 3
Duration                                 : 29 min 35 s
Bit rate mode                            : Constant
Bit rate                                 : 192 kb/s
Channel(s)                               : 2 channels
Sampling rate                            : 48.0 kHz
Compression mode                         : Lossy
Delay relative to video                  : -67 ms
Stream size                              : 40.6 MiB (5%)
Language                                 : English
Download
***Hidden content cannot be quoted.***
Goooooood
 

aryabib

Member
Registered
Jan 7, 2020
74
1
8
26
Justin Bieber - Z100 iHeart Radio Jingle Ball 2016 (HDTV-1080i)-ALANiS


Setlist:
Soon...
Code:
Format                                   : MPEG-TS
File size                                : 802 MiB
Duration                                 : 29 min 35 s
Overall bit rate mode                    : Variable
Overall bit rate                         : 3 791 kb/s

Video
ID                                       : 481 (0x1E1)
Menu ID                                  : 1 (0x1)
Format                                   : AVC
Format/Info                              : Advanced Video Codec
Format profile                           : High@L4
Format settings, CABAC                   : Yes
Format settings, ReFrames                : 3 frames
Codec ID                                 : 27
Duration                                 : 29 min 35 s
Bit rate mode                            : Constant
Bit rate                                 : 3 400 kb/s
Width                                    : 1 920 pixels
Height                                   : 1 080 pixels
Display aspect ratio                     : 16:9
Frame rate                               : 29.970 (30000/1001) FPS
Color space                              : YUV
Chroma subsampling                       : 4:2:0
Bit depth                                : 8 bits
Scan type                                : Interlaced
Scan type, store method                  : Separated fields
Scan order                               : Top Field First
Bits/(Pixel*Frame)                       : 0.055
Stream size                              : 722 MiB (90%)
Color range                              : Limited
Color primaries                          : BT.709
Transfer characteristics                 : BT.709
Matrix coefficients                      : BT.709

Audio
ID                                       : 482 (0x1E2)
Menu ID                                  : 1 (0x1)
Format                                   : MPEG Audio
Format version                           : Version 1
Format profile                           : Layer 2
Codec ID                                 : 3
Duration                                 : 29 min 35 s
Bit rate mode                            : Constant
Bit rate                                 : 192 kb/s
Channel(s)                               : 2 channels
Sampling rate                            : 48.0 kHz
Compression mode                         : Lossy
Delay relative to video                  : -67 ms
Stream size                              : 40.6 MiB (5%)
Language                                 : English
Download
***Hidden content cannot be quoted.***
thanksss
 

Jeyzeus

New Member
Registered
May 3, 2019
7
0
1
25
Justin Bieber - Z100 iHeart Radio Jingle Ball 2016 (HDTV-1080i)-ALANiS


Setlist:
Soon...
Code:
Format                                   : MPEG-TS
File size                                : 802 MiB
Duration                                 : 29 min 35 s
Overall bit rate mode                    : Variable
Overall bit rate                         : 3 791 kb/s

Video
ID                                       : 481 (0x1E1)
Menu ID                                  : 1 (0x1)
Format                                   : AVC
Format/Info                              : Advanced Video Codec
Format profile                           : High@L4
Format settings, CABAC                   : Yes
Format settings, ReFrames                : 3 frames
Codec ID                                 : 27
Duration                                 : 29 min 35 s
Bit rate mode                            : Constant
Bit rate                                 : 3 400 kb/s
Width                                    : 1 920 pixels
Height                                   : 1 080 pixels
Display aspect ratio                     : 16:9
Frame rate                               : 29.970 (30000/1001) FPS
Color space                              : YUV
Chroma subsampling                       : 4:2:0
Bit depth                                : 8 bits
Scan type                                : Interlaced
Scan type, store method                  : Separated fields
Scan order                               : Top Field First
Bits/(Pixel*Frame)                       : 0.055
Stream size                              : 722 MiB (90%)
Color range                              : Limited
Color primaries                          : BT.709
Transfer characteristics                 : BT.709
Matrix coefficients                      : BT.709

Audio
ID                                       : 482 (0x1E2)
Menu ID                                  : 1 (0x1)
Format                                   : MPEG Audio
Format version                           : Version 1
Format profile                           : Layer 2
Codec ID                                 : 3
Duration                                 : 29 min 35 s
Bit rate mode                            : Constant
Bit rate                                 : 192 kb/s
Channel(s)                               : 2 channels
Sampling rate                            : 48.0 kHz
Compression mode                         : Lossy
Delay relative to video                  : -67 ms
Stream size                              : 40.6 MiB (5%)
Language                                 : English
Download
[Hidden content]
thanks!!!!!!!!!!!!!!!!!!!!!!!!!!!!!! ive been looking for this