FEED Justin Timberlake - Can't Stop The Feeling (The 89th Academy Awards 2017) [FEED-1080i]

NCURBAN

Well-Known Member
Administrative
May 25, 2016
3,347
3,595
113
Justin Timberlake - Can't Stop The Feeling (The 89th Academy Awards 2017) [FEED-1080i]


Gener: Pop
Live At: The 89th Academy Awards
Date: January 24, 2017
Code:
[LEFT]Format                                   : MPEG-TS
File size                                : 1.22 GiB
Duration                                 : 4 min 17 s
Overall bit rate mode                    : Variable
Overall bit rate                         : 40.8 Mb/s
Maximum Overall bit rate                 : 35.5 Mb/s

Video
ID                                       : 4113 (0x1011)
Menu ID                                  : 1 (0x1)
Format                                   : MPEG Video
Format version                           : Version 2
Format profile                           : Main@High
Format settings, BVOP                    : Yes
Format settings, Matrix                  : Default
Format settings, GOP                     : Variable
Format settings, picture structure       : Field
Codec ID                                 : 2
Duration                                 : 4 min 16 s
Bit rate mode                            : Constant
Bit rate                                 : 31.8 Mb/s
Maximum bit rate                         : 32.8 Mb/s
Width                                    : 1 920 pixels
Height                                   : 1 080 pixels
Display aspect ratio                     : 16:9
Frame rate                               : 25.000 FPS
Color space                              : YUV
Chroma subsampling                       : 4:2:0
Bit depth                                : 8 bits
Scan type                                : Interlaced
Scan order                               : Top Field First
Compression mode                         : Lossy
Bits/(Pixel*Frame)                       : 0.614
Time code of first frame                 : 00:02:49:00
Time code source                         : Group of pictures header
Stream size                              : 973 MiB (78%)
Color primaries                          : BT.709
Transfer characteristics                 : BT.709
Matrix coefficients                      : BT.709

Audio
ID                                       : 4352 (0x1100)
Menu ID                                  : 1 (0x1)
Format                                   : PCM
Format settings, Endianness              : Big
Format settings, Sign                    : Signed
Muxing mode                              : Blu-ray
Codec ID                                 : 128
Duration                                 : 4 min 17 s
Bit rate mode                            : Constant
Bit rate                                 : 6 912 kb/s
Channel(s)                               : 6 channels
Channel positions                        : Front: L C R, Side: L R, LFE
Sampling rate                            : 48.0 kHz
Bit depth                                : 24 bits
Delay relative to video                  : -440 ms
Stream size                              : 212 MiB (17%)
Language                                 : English[/LEFT]
Download
You must reply before you can see the hidden data contained here.
 

isham023

New Member
Registered
Feb 29, 2020
8
0
1
36
THANK YOU!!!!!!!!!!!!!!!!!!!!!!!!!!!!!!!!!!!!!!!!!!!!!!!!!!!!!!!!!!!!!!!!!!!!!!!!!!!!
 

heinhtet

New Member
Registered
Dec 31, 2019
20
0
1
40
Justin Timberlake - Can't Stop The Feeling (The 89th Academy Awards 2017) [FEED-1080i]



Code:
[LEFT]Format                                   : MPEG-TS
File size                                : 1.22 GiB
Duration                                 : 4 min 17 s
Overall bit rate mode                    : Variable
Overall bit rate                         : 40.8 Mb/s
Maximum Overall bit rate                 : 35.5 Mb/s

Video
ID                                       : 4113 (0x1011)
Menu ID                                  : 1 (0x1)
Format                                   : MPEG Video
Format version                           : Version 2
Format profile                           : Main@High
Format settings, BVOP                    : Yes
Format settings, Matrix                  : Default
Format settings, GOP                     : Variable
Format settings, picture structure       : Field
Codec ID                                 : 2
Duration                                 : 4 min 16 s
Bit rate mode                            : Constant
Bit rate                                 : 31.8 Mb/s
Maximum bit rate                         : 32.8 Mb/s
Width                                    : 1 920 pixels
Height                                   : 1 080 pixels
Display aspect ratio                     : 16:9
Frame rate                               : 25.000 FPS
Color space                              : YUV
Chroma subsampling                       : 4:2:0
Bit depth                                : 8 bits
Scan type                                : Interlaced
Scan order                               : Top Field First
Compression mode                         : Lossy
Bits/(Pixel*Frame)                       : 0.614
Time code of first frame                 : 00:02:49:00
Time code source                         : Group of pictures header
Stream size                              : 973 MiB (78%)
Color primaries                          : BT.709
Transfer characteristics                 : BT.709
Matrix coefficients                      : BT.709

Audio
ID                                       : 4352 (0x1100)
Menu ID                                  : 1 (0x1)
Format                                   : PCM
Format settings, Endianness              : Big
Format settings, Sign                    : Signed
Muxing mode                              : Blu-ray
Codec ID                                 : 128
Duration                                 : 4 min 17 s
Bit rate mode                            : Constant
Bit rate                                 : 6 912 kb/s
Channel(s)                               : 6 channels
Channel positions                        : Front: L C R, Side: L R, LFE
Sampling rate                            : 48.0 kHz
Bit depth                                : 24 bits
Delay relative to video                  : -440 ms
Stream size                              : 212 MiB (17%)
Language                                 : English[/LEFT]
Download
***Hidden content cannot be quoted.***
thanks a lot