Master Justin Timberlake - TKO (Master-1080p)

NCURBAN

Well-Known Member
Administrative
May 25, 2016
3,347
3,853
113
Justin Timberlake - TKO (Master-1080p)



Geners: R&B/Soul
Relesead: Oct 29, 2013​

Code:
Format                                   : MPEG-4
Format profile                           : QuickTime
Codec ID                                 : qt
File size                                : 601 MiB
Duration                                 : 7mn 14s
Overall bit rate                         : 11.6 Mbps
Encoded date                             : UTC 2016-05-07 05:35:32
Tagged date                              : UTC 2016-05-07 06:36:58
Writing library                          : Apple QuickTime

Video
ID                                       : 2
Format                                   : AVC
Format/Info                              : Advanced Video Codec
Format profile                           : Main@L4
Format settings, CABAC                   : No
Format settings, ReFrames                : 2 frames
Format settings, GOP                     : M=1, N=48
Codec ID                                 : avc1
Codec ID/Info                            : Advanced Video Coding
Duration                                 : 7mn 14s
Bit rate                                 : 10.1 Mbps
Width                                    : 1 920 pixels
Height                                   : 1 080 pixels
Display aspect ratio                     : 16:9
Frame rate mode                          : Constant
Frame rate                               : 23.976 fps
Color space                              : YUV
Chroma subsampling                       : 4:2:0
Bit depth                                : 8 bits
Scan type                                : Progressive
Bits/(Pixel*Frame)                       : 0.202
Stream size                              : 521 MiB (87%)
Title                                    : Îáðàáîò÷èê âèäåî Apple / Îáðàáîò÷èê ïñåâäîíèìîâ Apple
Language                                 : English
Encoded date                             : UTC 2016-05-07 06:34:09
Tagged date                              : UTC 2016-05-07 06:36:58
Color range                              : Limited
Color primaries                          : BT.709
Transfer characteristics                 : BT.709
Matrix coefficients                      : BT.709

Audio
ID                                       : 1
Format                                   : PCM
Format settings, Endianness              : Little
Format settings, Sign                    : Signed
Codec ID                                 : sowt
Duration                                 : 7mn 14s
Bit rate mode                            : Constant
Bit rate                                 : 1 536 Kbps
Channel(s)                               : 2 channels
Channel positions                        : Front: L R
Sampling rate                            : 48.0 KHz
Bit depth                                : 16 bits
Stream size                              : 79.6 MiB (13%)
Title                                    : Îáðàáîò÷èê çâóêà Apple / Îáðàáîò÷èê ïñåâäîíèìîâ Apple
Language                                 : English
Encoded date                             : UTC 2016-05-07 06:34:09
Tagged date                              : UTC 2016-05-07 06:36:58

Download
You must reply before you can see the hidden data contained here.
 
  • Like
Reactions: Kastriot Selimi

javier

New Member
Registered
Mar 26, 2018
24
1
1
42
Justin Timberlake - TKO (Master-1080p)



Geners: R&B/Soul
Relesead: Oct 29, 2013​

Code:
Format                                   : MPEG-4
Format profile                           : QuickTime
Codec ID                                 : qt
File size                                : 601 MiB
Duration                                 : 7mn 14s
Overall bit rate                         : 11.6 Mbps
Encoded date                             : UTC 2016-05-07 05:35:32
Tagged date                              : UTC 2016-05-07 06:36:58
Writing library                          : Apple QuickTime

Video
ID                                       : 2
Format                                   : AVC
Format/Info                              : Advanced Video Codec
Format profile                           : Main@L4
Format settings, CABAC                   : No
Format settings, ReFrames                : 2 frames
Format settings, GOP                     : M=1, N=48
Codec ID                                 : avc1
Codec ID/Info                            : Advanced Video Coding
Duration                                 : 7mn 14s
Bit rate                                 : 10.1 Mbps
Width                                    : 1 920 pixels
Height                                   : 1 080 pixels
Display aspect ratio                     : 16:9
Frame rate mode                          : Constant
Frame rate                               : 23.976 fps
Color space                              : YUV
Chroma subsampling                       : 4:2:0
Bit depth                                : 8 bits
Scan type                                : Progressive
Bits/(Pixel*Frame)                       : 0.202
Stream size                              : 521 MiB (87%)
Title                                    : Îáðàáîò÷èê âèäåî Apple / Îáðàáîò÷èê ïñåâäîíèìîâ Apple
Language                                 : English
Encoded date                             : UTC 2016-05-07 06:34:09
Tagged date                              : UTC 2016-05-07 06:36:58
Color range                              : Limited
Color primaries                          : BT.709
Transfer characteristics                 : BT.709
Matrix coefficients                      : BT.709

Audio
ID                                       : 1
Format                                   : PCM
Format settings, Endianness              : Little
Format settings, Sign                    : Signed
Codec ID                                 : sowt
Duration                                 : 7mn 14s
Bit rate mode                            : Constant
Bit rate                                 : 1 536 Kbps
Channel(s)                               : 2 channels
Channel positions                        : Front: L R
Sampling rate                            : 48.0 KHz
Bit depth                                : 16 bits
Stream size                              : 79.6 MiB (13%)
Title                                    : Îáðàáîò÷èê çâóêà Apple / Îáðàáîò÷èê ïñåâäîíèìîâ Apple
Language                                 : English
Encoded date                             : UTC 2016-05-07 06:34:09
Tagged date                              : UTC 2016-05-07 06:36:58

Download
***Hidden content cannot be quoted.***
thankssss
 

Kastriot Selimi

New Member
Registered
Dec 8, 2018
3
0
1
28
Justin Timberlake - TKO (Master-1080p)



Geners: R&B/Soul
Relesead: Oct 29, 2013​

Code:
Format                                   : MPEG-4
Format profile                           : QuickTime
Codec ID                                 : qt
File size                                : 601 MiB
Duration                                 : 7mn 14s
Overall bit rate                         : 11.6 Mbps
Encoded date                             : UTC 2016-05-07 05:35:32
Tagged date                              : UTC 2016-05-07 06:36:58
Writing library                          : Apple QuickTime

Video
ID                                       : 2
Format                                   : AVC
Format/Info                              : Advanced Video Codec
Format profile                           : Main@L4
Format settings, CABAC                   : No
Format settings, ReFrames                : 2 frames
Format settings, GOP                     : M=1, N=48
Codec ID                                 : avc1
Codec ID/Info                            : Advanced Video Coding
Duration                                 : 7mn 14s
Bit rate                                 : 10.1 Mbps
Width                                    : 1 920 pixels
Height                                   : 1 080 pixels
Display aspect ratio                     : 16:9
Frame rate mode                          : Constant
Frame rate                               : 23.976 fps
Color space                              : YUV
Chroma subsampling                       : 4:2:0
Bit depth                                : 8 bits
Scan type                                : Progressive
Bits/(Pixel*Frame)                       : 0.202
Stream size                              : 521 MiB (87%)
Title                                    : Îáðàáîò÷èê âèäåî Apple / Îáðàáîò÷èê ïñåâäîíèìîâ Apple
Language                                 : English
Encoded date                             : UTC 2016-05-07 06:34:09
Tagged date                              : UTC 2016-05-07 06:36:58
Color range                              : Limited
Color primaries                          : BT.709
Transfer characteristics                 : BT.709
Matrix coefficients                      : BT.709

Audio
ID                                       : 1
Format                                   : PCM
Format settings, Endianness              : Little
Format settings, Sign                    : Signed
Codec ID                                 : sowt
Duration                                 : 7mn 14s
Bit rate mode                            : Constant
Bit rate                                 : 1 536 Kbps
Channel(s)                               : 2 channels
Channel positions                        : Front: L R
Sampling rate                            : 48.0 KHz
Bit depth                                : 16 bits
Stream size                              : 79.6 MiB (13%)
Title                                    : Îáðàáîò÷èê çâóêà Apple / Îáðàáîò÷èê ïñåâäîíèìîâ Apple
Language                                 : English
Encoded date                             : UTC 2016-05-07 06:34:09
Tagged date                              : UTC 2016-05-07 06:36:58

Download
***Hidden content cannot be quoted.***
Thank You
 

Raj

Member
Registered
Jul 3, 2019
67
0
6
29
Justin Timberlake - TKO (Master-1080p)



Geners: R&B/Soul
Relesead: Oct 29, 2013​

Code:
Format                                   : MPEG-4
Format profile                           : QuickTime
Codec ID                                 : qt
File size                                : 601 MiB
Duration                                 : 7mn 14s
Overall bit rate                         : 11.6 Mbps
Encoded date                             : UTC 2016-05-07 05:35:32
Tagged date                              : UTC 2016-05-07 06:36:58
Writing library                          : Apple QuickTime

Video
ID                                       : 2
Format                                   : AVC
Format/Info                              : Advanced Video Codec
Format profile                           : Main@L4
Format settings, CABAC                   : No
Format settings, ReFrames                : 2 frames
Format settings, GOP                     : M=1, N=48
Codec ID                                 : avc1
Codec ID/Info                            : Advanced Video Coding
Duration                                 : 7mn 14s
Bit rate                                 : 10.1 Mbps
Width                                    : 1 920 pixels
Height                                   : 1 080 pixels
Display aspect ratio                     : 16:9
Frame rate mode                          : Constant
Frame rate                               : 23.976 fps
Color space                              : YUV
Chroma subsampling                       : 4:2:0
Bit depth                                : 8 bits
Scan type                                : Progressive
Bits/(Pixel*Frame)                       : 0.202
Stream size                              : 521 MiB (87%)
Title                                    : Îáðàáîò÷èê âèäåî Apple / Îáðàáîò÷èê ïñåâäîíèìîâ Apple
Language                                 : English
Encoded date                             : UTC 2016-05-07 06:34:09
Tagged date                              : UTC 2016-05-07 06:36:58
Color range                              : Limited
Color primaries                          : BT.709
Transfer characteristics                 : BT.709
Matrix coefficients                      : BT.709

Audio
ID                                       : 1
Format                                   : PCM
Format settings, Endianness              : Little
Format settings, Sign                    : Signed
Codec ID                                 : sowt
Duration                                 : 7mn 14s
Bit rate mode                            : Constant
Bit rate                                 : 1 536 Kbps
Channel(s)                               : 2 channels
Channel positions                        : Front: L R
Sampling rate                            : 48.0 KHz
Bit depth                                : 16 bits
Stream size                              : 79.6 MiB (13%)
Title                                    : Îáðàáîò÷èê çâóêà Apple / Îáðàáîò÷èê ïñåâäîíèìîâ Apple
Language                                 : English
Encoded date                             : UTC 2016-05-07 06:34:09
Tagged date                              : UTC 2016-05-07 06:36:58

Download
***Hidden content cannot be quoted.***
Thank you very much!
 

Buti

Member
Registered
Aug 16, 2019
104
0
16
32
Thanks[HIDE-REPLY][/HIDE-REPLY]
 

Buti

Member
Registered
Aug 16, 2019
104
0
16
32
Thanks[HIDE-REPLY][/HIDE-REPLY]