WEBRIP Katy Perry - Rise & Roar (Democratic National Convention 2016) [WEBRIP-1080p]

NCURBAN

Well-Known Member
Administrative
May 25, 2016
3,347
3,595
113
Katy Perry - Rise & Roar (Democratic National Convention 2016) [WEBRIP-1080p]



Code:
Format                                   : MPEG-4
Format profile                           : QuickTime
Codec ID                                 : qt  
File size                                : 144 MiB
Duration                                 : 5mn 4s
Overall bit rate                         : 3 960 Kbps
Encoded date                             : UTC 2016-07-29 01:56:48
Tagged date                              : UTC 2016-07-29 01:56:54
Writing application                      : Lavf55.48.100
Writing library                          : Apple QuickTime

Video
ID                                       : 2
Format                                   : AVC
Format/Info                              : Advanced Video Codec
Format profile                           : High@L4
Format settings, CABAC                   : Yes
Format settings, ReFrames                : 2 frames
Codec ID                                 : avc1
Codec ID/Info                            : Advanced Video Coding
Duration                                 : 5mn 4s
Source duration                          : 5mn 5s
Source_Duration_LastFrame                : 33ms
Bit rate                                 : 3 807 Kbps
Width                                    : 1 920 pixels
Height                                   : 1 080 pixels
Display aspect ratio                     : 16:9
Frame rate mode                          : Constant
Frame rate                               : 30.000 fps
Color space                              : YUV
Chroma subsampling                       : 4:2:0
Bit depth                                : 8 bits
Scan type                                : Progressive
Bits/(Pixel*Frame)                       : 0.061
Stream size                              : 138 MiB (96%)
Source stream size                       : 139 MiB (97%)
Title                                    : Core Media Video
Encoded date                             : UTC 2016-07-29 01:56:48
Tagged date                              : UTC 2016-07-29 01:56:54
Color range                              : Limited
Color primaries                          : BT.709
Transfer characteristics                 : BT.709
Matrix coefficients                      : BT.709

Audio
ID                                       : 1
Format                                   : AAC
Format/Info                              : Advanced Audio Codec
Format profile                           : LC
Codec ID                                 : 40
Duration                                 : 5mn 4s
Source duration                          : 5mn 4s
Bit rate mode                            : Constant
Bit rate                                 : 126 Kbps
Channel(s)                               : 2 channels
Channel positions                        : Front: L R
Sampling rate                            : 44.1 KHz
Compression mode                         : Lossy
Stream size                              : 4.55 MiB (3%)
Source stream size                       : 4.56 MiB (3%)
Title                                    : Core Media Audio
Encoded date                             : UTC 2016-07-29 01:56:48
Tagged date                              : UTC 2016-07-29 01:56:54

Download
You must reply before you can see the hidden data contained here.