HDTV Kelly Clarkson - It's Quiet Uptown (Seth Meyers 2016) [HDTV-1080i]

NCURBAN

Well-Known Member
Administrative
May 25, 2016
3,360
4,162
113
Kelly Clarkson - It's Quiet Uptown (Live on Seth Meyers 2016) [HDTV-1080i]


Gener: Pop
At: Seth Meyers
Date: 31 Dec, 2016
Code:
Format                                   : MPEG-TS
File size                                : 439 MiB
Duration                                 : 4 min 20 s
Overall bit rate mode                    : Variable
Overall bit rate                         : 14.1 Mb/s
Maximum Overall bit rate                 : 35.5 Mb/s
Movie name                               : Late Night with Seth Meyers
Law rating                               : TV-14 (DL)

Video
ID                                       : 4113 (0x1011)
Menu ID                                  : 1 (0x1)
Format                                   : MPEG Video
Format version                           : Version 2
Format profile                           : Main@High
Format settings, BVOP                    : Yes
Format settings, Matrix                  : Default
Format settings, GOP                     : Variable
Format settings, picture structure       : Frame
Codec ID                                 : 2
Duration                                 : 4 min 20 s
Bit rate mode                            : Variable
Bit rate                                 : 13.0 Mb/s
Maximum bit rate                         : 80.0 Mb/s
Width                                    : 1 920 pixels
Height                                   : 1 080 pixels
Display aspect ratio                     : 16:9
Active Format Description                : Full frame 16:9 image
Frame rate                               : 29.970 (30000/1001) FPS
Color space                              : YUV
Chroma subsampling                       : 4:2:0
Bit depth                                : 8 bits
Scan type                                : Interlaced
Scan order                               : Top Field First
Compression mode                         : Lossy
Bits/(Pixel*Frame)                       : 0.210
Stream size                              : 405 MiB (92%)
Color primaries                          : BT.709
Transfer characteristics                 : BT.709
Matrix coefficients                      : BT.709

Audio
ID                                       : 4352 (0x1100)
Menu ID                                  : 1 (0x1)
Format                                   : AC-3
Format/Info                              : Audio Coding 3
Mode extension                           : CM (complete main)
Format settings, Endianness              : Big
Codec ID                                 : 129
Duration                                 : 4 min 19 s
Bit rate mode                            : Constant
Bit rate                                 : 384 kb/s
Channel(s)                               : 2 channels
Channel positions                        : Front: L R
Sampling rate                            : 48.0 kHz
Frame rate                               : 31.250 FPS (1536 spf)
Bit depth                                : 16 bits
Compression mode                         : Lossy
Delay relative to video                  : -33 ms
Stream size                              : 11.9 MiB (3%)
Download
You must reply before you can see the hidden data contained here.