FEED Kelly Clarkson - Medley (American Idol 2016 - Final) [Feed-1080i]-HDMania

NCURBAN

Well-Known Member
Administrative
May 25, 2016
3,347
3,858
113
Kelly Clarkson - Medley (American Idol 2016 - Final) [Feed-1080i]-HDMania


Code:
Format                                   : MPEG-TS
File size                                : 579 MiB
Duration                                 : 5mn 15s
Overall bit rate mode                    : Variable
Overall bit rate                         : 15.4 Mbps

Video
ID                                       : 308 (0x134)
Menu ID                                  : 1 (0x1)
Format                                   : AVC
Format/Info                              : Advanced Video Codec
Format profile                           : Main@L4
Format settings, CABAC                   : Yes
Format settings, ReFrames                : 4 frames
Format settings, GOP                     : M=3, N=12
Codec ID                                 : 27
Duration                                 : 5mn 15s
Bit rate mode                            : Variable
Bit rate                                 : 13.8 Mbps
Maximum bit rate                         : 14.1 Mbps
Width                                    : 1 920 pixels
Height                                   : 1 080 pixels
Display aspect ratio                     : 16:9
Frame rate                               : 25.000 fps
Color space                              : YUV
Chroma subsampling                       : 4:2:0
Bit depth                                : 8 bits
Scan type                                : MBAFF
Scan order                               : Top Field First
Bits/(Pixel*Frame)                       : 0.267
Stream size                              : 521 MiB (90%)
Color range                              : Limited
Color primaries                          : BT.709
Transfer characteristics                 : BT.709
Matrix coefficients                      : BT.709

Audio #1
ID                                       : 256 (0x100)
Menu ID                                  : 1 (0x1)
Format                                   : MPEG Audio
Format version                           : Version 1
Format profile                           : Layer 2
Codec ID                                 : 3
Duration                                 : 5mn 15s
Bit rate mode                            : Constant
Bit rate                                 : 384 Kbps
Channel(s)                               : 2 channels
Sampling rate                            : 48.0 KHz
Compression mode                         : Lossy
Delay relative to video                  : 4ms
Stream size                              : 14.5 MiB (2%)
Language                                 : English

Audio #2
ID                                       : 257 (0x101)
Menu ID                                  : 1 (0x1)
Format                                   : MPEG Audio
Format version                           : Version 1
Format profile                           : Layer 2
Codec ID                                 : 3
Duration                                 : 5mn 15s
Bit rate mode                            : Constant
Bit rate                                 : 384 Kbps
Channel(s)                               : 2 channels
Sampling rate                            : 48.0 KHz
Compression mode                         : Lossy
Delay relative to video                  : 4ms
Stream size                              : 14.5 MiB (2%)
Language                                 : English

Download
You must reply before you can see the hidden data contained here.
 
  • Like
Reactions: Wilson Filho