HDTV Kelsea Ballerini - Yeah Boy (The Tonight Show Starring Jimmy Fallon 2017) [HDTV-720p]-HDMania

NCURBAN

Well-Known Member
Administrative
May 25, 2016
3,347
3,635
113
Kelsea Ballerini - Yeah Boy (The Tonight Show Starring Jimmy Fallon 2017) [HDTV-720p]-HDMania


Genre: Country
At: The Tonight Show Starring Jimmy Fallon
Date: Feb 06, 2017
Code:
Format                                   : MPEG-TS
File size                                : 380 MiB
Duration                                 : 3 min 35 s
Overall bit rate mode                    : Variable
Overall bit rate                         : 14.8 Mb/s

Video
ID                                       : 5411 (0x1523)
Menu ID                                  : 10376 (0x2888)
Format                                   : AVC
Format/Info                              : Advanced Video Codec
Format profile                           : High@L4
Format settings, CABAC                   : Yes
Format settings, ReFrames                : 4 frames
Codec ID                                 : 27
Duration                                 : 3 min 35 s
Bit rate                                 : 13.2 Mb/s
Width                                    : 1 280 pixels
Height                                   : 720 pixels
Display aspect ratio                     : 16:9
Frame rate                               : 50.000 FPS
Color space                              : YUV
Chroma subsampling                       : 4:2:0
Bit depth                                : 8 bits
Scan type                                : Progressive
Bits/(Pixel*Frame)                       : 0.287
Stream size                              : 340 MiB (89%)

Audio #1
ID                                       : 5412 (0x1524)
Menu ID                                  : 10376 (0x2888)
Format                                   : AC-3
Format/Info                              : Audio Coding 3
Mode extension                           : CM (complete main)
Format settings, Endianness              : Big
Codec ID                                 : 6
Duration                                 : 3 min 35 s
Bit rate mode                            : Constant
Bit rate                                 : 448 kb/s
Channel(s)                               : 2 channels
Channel positions                        : Front: L R
Sampling rate                            : 48.0 kHz
Frame rate                               : 31.250 FPS (1536 spf)
Bit depth                                : 16 bits
Compression mode                         : Lossy
Stream size                              : 11.5 MiB (3%)
Language                                 : German

Download
You must reply before you can see the hidden data contained here.