HDTV Kendrick Lamar - Good Kid (Jimmy Kimmel 2013) [HDTV-720p]-BAJSKORV

NCURBAN

Well-Known Member
Administrative
May 25, 2016
3,347
3,613
113
Kendrick Lamar - Good Kid (Jimmy Kimmel 201:relievedface: [HDTV-720p]-BAJSKORV



Code:
Format                                   : Matroska
Format version                           : Version 2
File size                                : 232 MiB
Duration                                 : 3 min 33 s
Overall bit rate                         : 9 116 kb/s
Writing application                      : Lavf55.16.101
Writing library                          : Lavf55.16.101 / Lavf55.16.101

Video
ID                                       : 1
Format                                   : AVC
Format/Info                              : Advanced Video Codec
Format profile                           : High@L4.1
Format settings, CABAC                   : Yes
Format settings, ReFrames                : 5 frames
Codec ID                                 : V_MPEG4/ISO/AVC
Duration                                 : 3 min 33 s
Bit rate                                 : 8 615 kb/s
Width                                    : 1 280 pixels
Height                                   : 720 pixels
Display aspect ratio                     : 16:9
Frame rate mode                          : Constant
Frame rate                               : 59.940 (60000/1001) FPS
Color space                              : YUV
Chroma subsampling                       : 4:2:0
Bit depth                                : 8 bits
Scan type                                : Progressive
Bits/(Pixel*Frame)                       : 0.156
Stream size                              : 219 MiB (95%)
Language                                 : English
Default                                  : No
Forced                                   : No

Audio
ID                                       : 2
Format                                   : AC-3
Format/Info                              : Audio Coding 3
Mode extension                           : CM (complete main)
Format settings, Endianness              : Big
Codec ID                                 : A_AC3
Duration                                 : 3 min 33 s
Bit rate mode                            : Constant
Bit rate                                 : 320 kb/s
Channel(s)                               : 6 channels
Channel positions                        : Front: L C R, Side: L R, LFE
Sampling rate                            : 48.0 kHz
Frame rate                               : 31.250 FPS (1536 spf)
Bit depth                                : 16 bits
Compression mode                         : Lossy
Delay relative to video                  : 179 ms
Stream size                              : 8.13 MiB (4%)
Default                                  : Yes
Forced                                   : No

Download
You must reply before you can see the hidden data contained here.