Master Keri Hilson ft. Nelly - Lose Control (Master-1080p)

NCURBAN

Well-Known Member
Administrative
May 25, 2016
3,360
4,162
113
Keri Hilson ft. Nelly - Lose Control (Master-1080p)



Geners: R&B/Soul
Released: May 18, 2011​

Code:
Format                                   : MPEG-4
Format profile                           : QuickTime
Codec ID                                 : qt  
File size                                : 232 MiB
Duration                                 : 3mn 36s
Overall bit rate mode                    : Variable
Overall bit rate                         : 8 961 Kbps
Encoded date                             : UTC 2014-02-11 01:08:07
Tagged date                              : UTC 2014-02-11 01:08:22
Writing library                          : Apple QuickTime
Media/UUID                               : F6EAD5A1-5EB1-4626-A1FE-F1B01AE6576E
Media/History/UUID                       : 06714B4C-953E-4695-A5A9-E52C652A8D73

Video
ID                                       : 1
Format                                   : AVC
Format/Info                              : Advanced Video Codec
Format profile                           : Main@L4.1
Format settings, CABAC                   : No
Format settings, ReFrames                : 2 frames
Codec ID                                 : avc1
Codec ID/Info                            : Advanced Video Coding
Duration                                 : 3mn 36s
Bit rate mode                            : Variable
Bit rate                                 : 8 643 Kbps
Maximum bit rate                         : 10.2 Mbps
Width                                    : 1 920 pixels
Clean aperture width                     : 1 888 pixels
Height                                   : 1 080 pixels
Clean aperture height                    : 1 062 pixels
Display aspect ratio                     : 16:9
Frame rate mode                          : Constant
Frame rate                               : 23.976 fps
Color space                              : YUV
Chroma subsampling                       : 4:2:0
Bit depth                                : 8 bits
Scan type                                : Progressive
Bits/(Pixel*Frame)                       : 0.174
Stream size                              : 223 MiB (96%)
Language                                 : English
Encoded date                             : UTC 2014-02-11 01:08:07
Tagged date                              : UTC 2014-02-11 01:08:22
Color range                              : Limited
Color primaries                          : BT.709
Transfer characteristics                 : BT.709
Matrix coefficients                      : BT.709

Audio
ID                                       : 2
Format                                   : AAC
Format/Info                              : Advanced Audio Codec
Format profile                           : LC
Codec ID                                 : 40
Duration                                 : 3mn 36s
Source duration                          : 3mn 36s
Bit rate mode                            : Constant
Bit rate                                 : 320 Kbps
Channel(s)                               : 2 channels
Channel positions                        : Front: L R
Sampling rate                            : 48.0 KHz
Compression mode                         : Lossy
Stream size                              : 8.06 MiB (3%)
Source stream size                       : 8.06 MiB (3%)
Language                                 : English
Encoded date                             : UTC 2014-02-11 01:08:07
Tagged date                              : UTC 2014-02-11 01:08:22

Other
ID                                       : 3
Type                                     : Time code
Format                                   : QuickTime TC
Duration                                 : 3mn 36s
Time code of first frame                 : 00:00:00:00
Time code, striped                       : Yes
Language                                 : English
Encoded date                             : UTC 2014-02-11 01:08:07
Tagged date                              : UTC 2014-02-11 01:08:22

Download
[HIDE-REPLY]MEGA[/HIDE-REPLY]
 

babestv

New Member
Registered
May 2, 2020
27
0
1
27
Keri Hilson ft. Nelly - Lose Control (Master-1080p)



Geners: R&B/Soul
Released: May 18, 2011​

Code:
Format                                   : MPEG-4
Format profile                           : QuickTime
Codec ID                                 : qt 
File size                                : 232 MiB
Duration                                 : 3mn 36s
Overall bit rate mode                    : Variable
Overall bit rate                         : 8 961 Kbps
Encoded date                             : UTC 2014-02-11 01:08:07
Tagged date                              : UTC 2014-02-11 01:08:22
Writing library                          : Apple QuickTime
Media/UUID                               : F6EAD5A1-5EB1-4626-A1FE-F1B01AE6576E
Media/History/UUID                       : 06714B4C-953E-4695-A5A9-E52C652A8D73

Video
ID                                       : 1
Format                                   : AVC
Format/Info                              : Advanced Video Codec
Format profile                           : Main@L4.1
Format settings, CABAC                   : No
Format settings, ReFrames                : 2 frames
Codec ID                                 : avc1
Codec ID/Info                            : Advanced Video Coding
Duration                                 : 3mn 36s
Bit rate mode                            : Variable
Bit rate                                 : 8 643 Kbps
Maximum bit rate                         : 10.2 Mbps
Width                                    : 1 920 pixels
Clean aperture width                     : 1 888 pixels
Height                                   : 1 080 pixels
Clean aperture height                    : 1 062 pixels
Display aspect ratio                     : 16:9
Frame rate mode                          : Constant
Frame rate                               : 23.976 fps
Color space                              : YUV
Chroma subsampling                       : 4:2:0
Bit depth                                : 8 bits
Scan type                                : Progressive
Bits/(Pixel*Frame)                       : 0.174
Stream size                              : 223 MiB (96%)
Language                                 : English
Encoded date                             : UTC 2014-02-11 01:08:07
Tagged date                              : UTC 2014-02-11 01:08:22
Color range                              : Limited
Color primaries                          : BT.709
Transfer characteristics                 : BT.709
Matrix coefficients                      : BT.709

Audio
ID                                       : 2
Format                                   : AAC
Format/Info                              : Advanced Audio Codec
Format profile                           : LC
Codec ID                                 : 40
Duration                                 : 3mn 36s
Source duration                          : 3mn 36s
Bit rate mode                            : Constant
Bit rate                                 : 320 Kbps
Channel(s)                               : 2 channels
Channel positions                        : Front: L R
Sampling rate                            : 48.0 KHz
Compression mode                         : Lossy
Stream size                              : 8.06 MiB (3%)
Source stream size                       : 8.06 MiB (3%)
Language                                 : English
Encoded date                             : UTC 2014-02-11 01:08:07
Tagged date                              : UTC 2014-02-11 01:08:22

Other
ID                                       : 3
Type                                     : Time code
Format                                   : QuickTime TC
Duration                                 : 3mn 36s
Time code of first frame                 : 00:00:00:00
Time code, striped                       : Yes
Language                                 : English
Encoded date                             : UTC 2014-02-11 01:08:07
Tagged date                              : UTC 2014-02-11 01:08:22

Download
***Hidden content cannot be quoted.***
super
 

alpainsponge

New Member
Registered
Feb 3, 2020
18
2
1
58
Keri Hilson ft. Nelly - Lose Control (Master-1080p)



Geners: R&B/Soul
Released: May 18, 2011​

Code:
Format                                   : MPEG-4
Format profile                           : QuickTime
Codec ID                                 : qt 
File size                                : 232 MiB
Duration                                 : 3mn 36s
Overall bit rate mode                    : Variable
Overall bit rate                         : 8 961 Kbps
Encoded date                             : UTC 2014-02-11 01:08:07
Tagged date                              : UTC 2014-02-11 01:08:22
Writing library                          : Apple QuickTime
Media/UUID                               : F6EAD5A1-5EB1-4626-A1FE-F1B01AE6576E
Media/History/UUID                       : 06714B4C-953E-4695-A5A9-E52C652A8D73

Video
ID                                       : 1
Format                                   : AVC
Format/Info                              : Advanced Video Codec
Format profile                           : Main@L4.1
Format settings, CABAC                   : No
Format settings, ReFrames                : 2 frames
Codec ID                                 : avc1
Codec ID/Info                            : Advanced Video Coding
Duration                                 : 3mn 36s
Bit rate mode                            : Variable
Bit rate                                 : 8 643 Kbps
Maximum bit rate                         : 10.2 Mbps
Width                                    : 1 920 pixels
Clean aperture width                     : 1 888 pixels
Height                                   : 1 080 pixels
Clean aperture height                    : 1 062 pixels
Display aspect ratio                     : 16:9
Frame rate mode                          : Constant
Frame rate                               : 23.976 fps
Color space                              : YUV
Chroma subsampling                       : 4:2:0
Bit depth                                : 8 bits
Scan type                                : Progressive
Bits/(Pixel*Frame)                       : 0.174
Stream size                              : 223 MiB (96%)
Language                                 : English
Encoded date                             : UTC 2014-02-11 01:08:07
Tagged date                              : UTC 2014-02-11 01:08:22
Color range                              : Limited
Color primaries                          : BT.709
Transfer characteristics                 : BT.709
Matrix coefficients                      : BT.709

Audio
ID                                       : 2
Format                                   : AAC
Format/Info                              : Advanced Audio Codec
Format profile                           : LC
Codec ID                                 : 40
Duration                                 : 3mn 36s
Source duration                          : 3mn 36s
Bit rate mode                            : Constant
Bit rate                                 : 320 Kbps
Channel(s)                               : 2 channels
Channel positions                        : Front: L R
Sampling rate                            : 48.0 KHz
Compression mode                         : Lossy
Stream size                              : 8.06 MiB (3%)
Source stream size                       : 8.06 MiB (3%)
Language                                 : English
Encoded date                             : UTC 2014-02-11 01:08:07
Tagged date                              : UTC 2014-02-11 01:08:22

Other
ID                                       : 3
Type                                     : Time code
Format                                   : QuickTime TC
Duration                                 : 3mn 36s
Time code of first frame                 : 00:00:00:00
Time code, striped                       : Yes
Language                                 : English
Encoded date                             : UTC 2014-02-11 01:08:07
Tagged date                              : UTC 2014-02-11 01:08:22

Download
***Hidden content cannot be quoted.***
thanks