YouTube Kerli - Diamond Hard (YouTube 1080P)

NCURBAN

Well-Known Member
Administrative
May 25, 2016
3,358
4,157
113
Kerli - Diamond Hard (YouTube 1080P)



Genres: Pop
Released: Jul 27, 2016

Code:
Format                                   : MPEG-4
Format profile                           : Base Media
Codec ID                                 : isom
File size                                : 67.3 MiB
Duration                                 : 5mn 43s
Overall bit rate                         : 1 644 Kbps
Writing application                      : Lavf56.40.101

Video
ID                                       : 1
Format                                   : AVC
Format/Info                              : Advanced Video Codec
Format profile                           : High@L4
Format settings, CABAC                   : Yes
Format settings, ReFrames                : 3 frames
Codec ID                                 : avc1
Codec ID/Info                            : Advanced Video Coding
Duration                                 : 5mn 43s
Duration_FirstFrame                      : -40ms
Bit rate                                 : 1 512 Kbps
Width                                    : 1 920 pixels
Height                                   : 1 012 pixels
Display aspect ratio                     : 1.897
Frame rate mode                          : Variable
Frame rate                               : 25.000 fps
Minimum frame rate                       : 25.000 fps
Maximum frame rate                       : 25.014 fps
Color space                              : YUV
Chroma subsampling                       : 4:2:0
Bit depth                                : 8 bits
Scan type                                : Progressive
Bits/(Pixel*Frame)                       : 0.031
Stream size                              : 61.9 MiB (92%)
Color range                              : Limited
Color primaries                          : BT.709
Transfer characteristics                 : BT.709
Matrix coefficients                      : BT.709

Audio
ID                                       : 2
Format                                   : AAC
Format/Info                              : Advanced Audio Codec
Format profile                           : LC
Codec ID                                 : 40
Duration                                 : 5mn 43s
Bit rate mode                            : Constant
Bit rate                                 : 126 Kbps
Channel(s)                               : 2 channels
Channel positions                        : Front: L R
Sampling rate                            : 44.1 KHz
Compression mode                         : Lossy
Stream size                              : 5.14 MiB (8%)

Download
You must reply before you can see the hidden data contained here.