Master Kylie Minogue - Get Outta My Way (Master-1080p- FLAC)

NCURBAN

Well-Known Member
Administrative
May 25, 2016
3,347
3,885
113
Kylie Minogue - Get Outta My Way (Master-1080p- FLAC)



Genres: Pop
Released: Sep 03, 2010​

Code:
Format                                   : MPEG-4
Format profile                           : QuickTime
Codec ID                                 : qt  
File size                                : 171 MiB
Duration                                 : 3mn 44s
Overall bit rate                         : 6 366 Kbps
Encoded date                             : UTC 2013-06-09 07:05:33
Tagged date                              : UTC 2013-06-09 07:05:52
Writing library                          : Apple QuickTime
com.apple.quicktime.player.movie.audio.g : ED7C9112-1674-4CFB-8072-D19C44076076
com.apple.quicktime.player.movie.audio.t : 7.7.4 (Dev)
com.apple.quicktime.player.movie.audio.b : 7.7.4 (1680.86)
com.apple.quicktime.player.movie.visual. : (Binary)

Video
ID                                       : 1
Format                                   : AVC
Format/Info                              : Advanced Video Codec
Format profile                           : Main@L4
Format settings, CABAC                   : No
Format settings, ReFrames                : 2 frames
Format settings, GOP                     : M=1, N=60
Codec ID                                 : avc1
Codec ID/Info                            : Advanced Video Coding
Duration                                 : 3mn 44s
Bit rate                                 : 4 954 Kbps
Width                                    : 1 920 pixels
Clean aperture width                     : 1 888 pixels
Height                                   : 1 080 pixels
Clean aperture height                    : 1 062 pixels
Display aspect ratio                     : 16:9
Frame rate mode                          : Constant
Frame rate                               : 25.000 fps
Color space                              : YUV
Chroma subsampling                       : 4:2:0
Bit depth                                : 8 bits
Scan type                                : Progressive
Bits/(Pixel*Frame)                       : 0.096
Stream size                              : 133 MiB (78%)
Title                                    : Æ»¹ûÊÓƵýÌå´¦Àí³ÌÐò / Apple ÌæÉíÊý¾Ý´¦Àí³ÌÐò
Language                                 : English
Encoded date                             : UTC 2013-05-07 20:04:50
Tagged date                              : UTC 2013-06-09 07:05:52
Color range                              : Limited
Color primaries                          : BT.709
Transfer characteristics                 : BT.709
Matrix coefficients                      : BT.709

Audio
ID                                       : 4
Format                                   : PCM
Format settings, Endianness              : Little
Format settings, Sign                    : Signed
Codec ID                                 : sowt
Duration                                 : 3mn 44s
Bit rate mode                            : Constant
Bit rate                                 : 1 411.2 Kbps
Channel(s)                               : 2 channels
Channel positions                        : Front: L R
Sampling rate                            : 44.1 KHz
Bit depth                                : 16 bits
Stream size                              : 37.8 MiB (22%)
Title                                    : Æ»¹ûÉùƵýÌå´¦Àí³ÌÐò / Apple ÌæÉíÊý¾Ý´¦Àí³ÌÐò
Language                                 : English
Encoded date                             : UTC 2013-06-09 07:05:25
Tagged date                              : UTC 2013-06-09 07:05:52

Download
[HIDE-REPLY]MEGA[/HIDE-REPLY]
 

itsmadmikey

New Member
Registered
Dec 16, 2018
20
0
1
17
Kylie Minogue - Get Outta My Way (Master-1080p- FLAC)



Genres: Pop
Released: Sep 03, 2010​

Code:
Format                                   : MPEG-4
Format profile                           : QuickTime
Codec ID                                 : qt 
File size                                : 171 MiB
Duration                                 : 3mn 44s
Overall bit rate                         : 6 366 Kbps
Encoded date                             : UTC 2013-06-09 07:05:33
Tagged date                              : UTC 2013-06-09 07:05:52
Writing library                          : Apple QuickTime
com.apple.quicktime.player.movie.audio.g : ED7C9112-1674-4CFB-8072-D19C44076076
com.apple.quicktime.player.movie.audio.t : 7.7.4 (Dev)
com.apple.quicktime.player.movie.audio.b : 7.7.4 (1680.86)
com.apple.quicktime.player.movie.visual. : (Binary)

Video
ID                                       : 1
Format                                   : AVC
Format/Info                              : Advanced Video Codec
Format profile                           : Main@L4
Format settings, CABAC                   : No
Format settings, ReFrames                : 2 frames
Format settings, GOP                     : M=1, N=60
Codec ID                                 : avc1
Codec ID/Info                            : Advanced Video Coding
Duration                                 : 3mn 44s
Bit rate                                 : 4 954 Kbps
Width                                    : 1 920 pixels
Clean aperture width                     : 1 888 pixels
Height                                   : 1 080 pixels
Clean aperture height                    : 1 062 pixels
Display aspect ratio                     : 16:9
Frame rate mode                          : Constant
Frame rate                               : 25.000 fps
Color space                              : YUV
Chroma subsampling                       : 4:2:0
Bit depth                                : 8 bits
Scan type                                : Progressive
Bits/(Pixel*Frame)                       : 0.096
Stream size                              : 133 MiB (78%)
Title                                    : Æ»¹ûÊÓƵýÌå´¦Àí³ÌÐò / Apple ÌæÉíÊý¾Ý´¦Àí³ÌÐò
Language                                 : English
Encoded date                             : UTC 2013-05-07 20:04:50
Tagged date                              : UTC 2013-06-09 07:05:52
Color range                              : Limited
Color primaries                          : BT.709
Transfer characteristics                 : BT.709
Matrix coefficients                      : BT.709

Audio
ID                                       : 4
Format                                   : PCM
Format settings, Endianness              : Little
Format settings, Sign                    : Signed
Codec ID                                 : sowt
Duration                                 : 3mn 44s
Bit rate mode                            : Constant
Bit rate                                 : 1 411.2 Kbps
Channel(s)                               : 2 channels
Channel positions                        : Front: L R
Sampling rate                            : 44.1 KHz
Bit depth                                : 16 bits
Stream size                              : 37.8 MiB (22%)
Title                                    : Æ»¹ûÉùƵýÌå´¦Àí³ÌÐò / Apple ÌæÉíÊý¾Ý´¦Àí³ÌÐò
Language                                 : English
Encoded date                             : UTC 2013-06-09 07:05:25
Tagged date                              : UTC 2013-06-09 07:05:52

Download
***Hidden content cannot be quoted.***
Kylie Minogue - Get Outta My Way (Master-1080p- FLAC)



Genres: Pop
Released: Sep 03, 2010​

Code:
Format                                   : MPEG-4
Format profile                           : QuickTime
Codec ID                                 : qt 
File size                                : 171 MiB
Duration                                 : 3mn 44s
Overall bit rate                         : 6 366 Kbps
Encoded date                             : UTC 2013-06-09 07:05:33
Tagged date                              : UTC 2013-06-09 07:05:52
Writing library                          : Apple QuickTime
com.apple.quicktime.player.movie.audio.g : ED7C9112-1674-4CFB-8072-D19C44076076
com.apple.quicktime.player.movie.audio.t : 7.7.4 (Dev)
com.apple.quicktime.player.movie.audio.b : 7.7.4 (1680.86)
com.apple.quicktime.player.movie.visual. : (Binary)

Video
ID                                       : 1
Format                                   : AVC
Format/Info                              : Advanced Video Codec
Format profile                           : Main@L4
Format settings, CABAC                   : No
Format settings, ReFrames                : 2 frames
Format settings, GOP                     : M=1, N=60
Codec ID                                 : avc1
Codec ID/Info                            : Advanced Video Coding
Duration                                 : 3mn 44s
Bit rate                                 : 4 954 Kbps
Width                                    : 1 920 pixels
Clean aperture width                     : 1 888 pixels
Height                                   : 1 080 pixels
Clean aperture height                    : 1 062 pixels
Display aspect ratio                     : 16:9
Frame rate mode                          : Constant
Frame rate                               : 25.000 fps
Color space                              : YUV
Chroma subsampling                       : 4:2:0
Bit depth                                : 8 bits
Scan type                                : Progressive
Bits/(Pixel*Frame)                       : 0.096
Stream size                              : 133 MiB (78%)
Title                                    : Æ»¹ûÊÓƵýÌå´¦Àí³ÌÐò / Apple ÌæÉíÊý¾Ý´¦Àí³ÌÐò
Language                                 : English
Encoded date                             : UTC 2013-05-07 20:04:50
Tagged date                              : UTC 2013-06-09 07:05:52
Color range                              : Limited
Color primaries                          : BT.709
Transfer characteristics                 : BT.709
Matrix coefficients                      : BT.709

Audio
ID                                       : 4
Format                                   : PCM
Format settings, Endianness              : Little
Format settings, Sign                    : Signed
Codec ID                                 : sowt
Duration                                 : 3mn 44s
Bit rate mode                            : Constant
Bit rate                                 : 1 411.2 Kbps
Channel(s)                               : 2 channels
Channel positions                        : Front: L R
Sampling rate                            : 44.1 KHz
Bit depth                                : 16 bits
Stream size                              : 37.8 MiB (22%)
Title                                    : Æ»¹ûÉùƵýÌå´¦Àí³ÌÐò / Apple ÌæÉíÊý¾Ý´¦Àí³ÌÐò
Language                                 : English
Encoded date                             : UTC 2013-06-09 07:05:25
Tagged date                              : UTC 2013-06-09 07:05:52

Download
***Hidden content cannot be quoted.***
 

unkwn2u

New Member
Registered
Jul 29, 2019
14
0
1
40
Kylie Minogue - Get Outta My Way (Master-1080p- FLAC)



Genres: Pop
Released: Sep 03, 2010​

Code:
Format                                   : MPEG-4
Format profile                           : QuickTime
Codec ID                                 : qt 
File size                                : 171 MiB
Duration                                 : 3mn 44s
Overall bit rate                         : 6 366 Kbps
Encoded date                             : UTC 2013-06-09 07:05:33
Tagged date                              : UTC 2013-06-09 07:05:52
Writing library                          : Apple QuickTime
com.apple.quicktime.player.movie.audio.g : ED7C9112-1674-4CFB-8072-D19C44076076
com.apple.quicktime.player.movie.audio.t : 7.7.4 (Dev)
com.apple.quicktime.player.movie.audio.b : 7.7.4 (1680.86)
com.apple.quicktime.player.movie.visual. : (Binary)

Video
ID                                       : 1
Format                                   : AVC
Format/Info                              : Advanced Video Codec
Format profile                           : Main@L4
Format settings, CABAC                   : No
Format settings, ReFrames                : 2 frames
Format settings, GOP                     : M=1, N=60
Codec ID                                 : avc1
Codec ID/Info                            : Advanced Video Coding
Duration                                 : 3mn 44s
Bit rate                                 : 4 954 Kbps
Width                                    : 1 920 pixels
Clean aperture width                     : 1 888 pixels
Height                                   : 1 080 pixels
Clean aperture height                    : 1 062 pixels
Display aspect ratio                     : 16:9
Frame rate mode                          : Constant
Frame rate                               : 25.000 fps
Color space                              : YUV
Chroma subsampling                       : 4:2:0
Bit depth                                : 8 bits
Scan type                                : Progressive
Bits/(Pixel*Frame)                       : 0.096
Stream size                              : 133 MiB (78%)
Title                                    : Æ»¹ûÊÓƵýÌå´¦Àí³ÌÐò / Apple ÌæÉíÊý¾Ý´¦Àí³ÌÐò
Language                                 : English
Encoded date                             : UTC 2013-05-07 20:04:50
Tagged date                              : UTC 2013-06-09 07:05:52
Color range                              : Limited
Color primaries                          : BT.709
Transfer characteristics                 : BT.709
Matrix coefficients                      : BT.709

Audio
ID                                       : 4
Format                                   : PCM
Format settings, Endianness              : Little
Format settings, Sign                    : Signed
Codec ID                                 : sowt
Duration                                 : 3mn 44s
Bit rate mode                            : Constant
Bit rate                                 : 1 411.2 Kbps
Channel(s)                               : 2 channels
Channel positions                        : Front: L R
Sampling rate                            : 44.1 KHz
Bit depth                                : 16 bits
Stream size                              : 37.8 MiB (22%)
Title                                    : Æ»¹ûÉùƵýÌå´¦Àí³ÌÐò / Apple ÌæÉíÊý¾Ý´¦Àí³ÌÐò
Language                                 : English
Encoded date                             : UTC 2013-06-09 07:05:25
Tagged date                              : UTC 2013-06-09 07:05:52

Download
***Hidden content cannot be quoted.***
 

Buti

Member
Registered
Aug 16, 2019
104
0
16
32
Thanks[HIDE-REPLY][/HIDE-REPLY]
 

Rafael_C

Member
Registered
Jan 6, 2020
33
0
6
31
Nice quality. Thanks Nice quality. Thanks Nice quality. Thanks Nice quality. Thanks