HDTV Kylie Minogue - Let It Snow (Michael McIntyre's Christmas Comedy Roadshow 2011) [HDTV-1080i]-dylwys

NCURBAN

Well-Known Member
Administrative
May 25, 2016
3,360
4,162
113
Kylie Minogue - Let It Snow (Michael McIntyre's Christmas Comedy Roadshow 2011) [HDTV-1080i]-dylwys


Gener: Holiday
At: Michael McIntyre's Christmas Comedy Roadshow
Date: Dec 25, 2011
Code:
Format                                   : MPEG-TS
File size                                : 245 MiB
Duration                                 : 2 min 43 s
Overall bit rate mode                    : Variable
Overall bit rate                         : 12.5 Mb/s

Video
ID                                       : 5400 (0x1518)
Menu ID                                  : 6941 (0x1B1D)
Format                                   : AVC
Format/Info                              : Advanced Video Codec
Format profile                           : High@L4
Format settings, CABAC                   : Yes
Format settings, ReFrames                : 4 frames
Codec ID                                 : 27
Duration                                 : 2 min 43 s
Bit rate                                 : 11.5 Mb/s
Width                                    : 1 440 pixels
Height                                   : 1 080 pixels
Display aspect ratio                     : 16:9
Frame rate                               : 25.000 FPS
Color space                              : YUV
Chroma subsampling                       : 4:2:0
Bit depth                                : 8 bits
Scan type                                : MBAFF
Scan type, store method                  : Interleaved fields
Scan order                               : Top Field First
Bits/(Pixel*Frame)                       : 0.295
Stream size                              : 223 MiB (91%)
Color range                              : Limited
Color primaries                          : BT.709
Transfer characteristics                 : BT.709
Matrix coefficients                      : BT.709

Audio #1
ID                                       : 5401 (0x1519)
Menu ID                                  : 6941 (0x1B1D)
Format                                   : AC-3
Format/Info                              : Audio Coding 3
Mode extension                           : CM (complete main)
Format settings, Endianness              : Big
Codec ID                                 : 6
Duration                                 : 2 min 43 s
Bit rate mode                            : Constant
Bit rate                                 : 192 kb/s
Channel(s)                               : 2 channels
Channel positions                        : Front: L R
Sampling rate                            : 48.0 kHz
Frame rate                               : 31.250 FPS (1536 spf)
Bit depth                                : 16 bits
Compression mode                         : Lossy
Delay relative to video                  : 16 ms
Stream size                              : 3.74 MiB (2%)
Language                                 : English
Download
You must reply before you can see the hidden data contained here.