FEED Kylie Minogue - Night Fever (Danse avec les stars 2016) [FEED-1080i]-HDMania

NCURBAN

Well-Known Member
Administrative
May 25, 2016
3,347
3,592
113
Kylie Minogue - Night Fever (Danse avec les stars 2016) [FEED-1080i]-HDMania


Gener: Pop
At: Danse avec les stars
Date: 17 Dec, 2016
Code:
Format                                   : MPEG-TS
File size                                : 235 MiB
Duration                                 : 3 min 2 s
Overall bit rate mode                    : Variable
Overall bit rate                         : 10.8 Mb/s

Video
ID                                       : 4113 (0x1011)
Menu ID                                  : 1 (0x1)
Format                                   : AVC
Format/Info                              : Advanced Video Codec
Format profile                           : High@L4
Format settings, CABAC                   : Yes
Format settings, ReFrames                : 2 frames
Format settings, GOP                     : M=3, N=24
Codec ID                                 : 27
Duration                                 : 3 min 1 s
Bit rate                                 : 9 846 kb/s
Maximum bit rate                         : 10.1 Mb/s
Width                                    : 1 920 pixels
Height                                   : 1 080 pixels
Display aspect ratio                     : 16:9
Frame rate                               : 25.000 FPS
Color space                              : YUV
Chroma subsampling                       : 4:2:0
Bit depth                                : 8 bits
Scan type                                : Interlaced
Scan type, store method                  : Separated fields
Scan order                               : Top Field First
Bits/(Pixel*Frame)                       : 0.190
Stream size                              : 213 MiB (91%)

Audio
ID                                       : 4352 (0x1100)
Menu ID                                  : 1 (0x1)
Format                                   : MPEG Audio
Format version                           : Version 1
Format profile                           : Layer 2
Mode                                     : Dual mono
Codec ID                                 : 3
Duration                                 : 3 min 2 s
Bit rate mode                            : Constant
Bit rate                                 : 384 kb/s
Channel(s)                               : 2 channels
Sampling rate                            : 48.0 kHz
Compression mode                         : Lossy
Stream size                              : 8.36 MiB (4%)
Language                                 : English
Language, more info                      : Clean effects
Download
You must reply before you can see the hidden data contained here.