FEED Lady Gaga - Dive Bar Tour 2016 (FEED-720p)-ALANiS

NCURBAN

Well-Known Member
Administrative
May 25, 2016
3,347
3,618
113
Lady Gaga - Dive Bar Tour 2016 (FEED-720p)-ALANiS


Setlist:
  1. Sinner's Prayer
  2. A-Yo
  3. Million Reasons
  4. Perfect Illusion
Code:
Format                                   : MPEG-TS
File size                                : 5.35 GiB
Duration                                 : 28mn 31s
Start time                               : UTC 2016-10-06 03:19:26
End time                                 : UTC 2016-10-06 03:19:26
Overall bit rate mode                    : Variable
Overall bit rate                         : 26.8 Mbps
Network name                             : Ericsson

Video
ID                                       : 308 (0x134)
Menu ID                                  : 1 (0x1)
Format                                   : AVC
Format/Info                              : Advanced Video Codec
Format profile                           : High@L4.1
Format settings, CABAC                   : Yes
Format settings, ReFrames                : 6 frames
Codec ID                                 : 27
Duration                                 : 28mn 31s
Bit rate                                 : 25.1 Mbps
Width                                    : 1 280 pixels
Height                                   : 720 pixels
Display aspect ratio                     : 16:9
Frame rate                               : 59.940 fps
Color space                              : YUV
Chroma subsampling                       : 4:2:0
Bit depth                                : 8 bits
Scan type                                : Progressive
Bits/(Pixel*Frame)                       : 0.455
Stream size                              : 5.00 GiB (94%)
Color range                              : Limited
Color primaries                          : BT.709
Transfer characteristics                 : BT.709
Matrix coefficients                      : BT.709

Audio
ID                                       : 256 (0x100)
Menu ID                                  : 1 (0x1)
Format                                   : MPEG Audio
Format version                           : Version 1
Format profile                           : Layer 2
Codec ID                                 : 3
Duration                                 : 28mn 31s
Bit rate mode                            : Constant
Bit rate                                 : 384 Kbps
Channel(s)                               : 2 channels
Sampling rate                            : 48.0 KHz
Compression mode                         : Lossy
Delay relative to video                  : -8ms
Stream size                              : 78.4 MiB (1%)
Language                                 : English

Download
[HIDE-REPLY]MEGA[/HIDE-REPLY]
 

Andre.braz

New Member
Registered
Apr 3, 2018
14
0
1
25
Lady Gaga - Dive Bar Tour 2016 (FEED-720p)-ALANiS


Setlist:

  1. Sinner's Prayer
    A-Yo
    Million Reasons
    Perfect Illusion
Code:
Format                                   : MPEG-TS
File size                                : 5.35 GiB
Duration                                 : 28mn 31s
Start time                               : UTC 2016-10-06 03:19:26
End time                                 : UTC 2016-10-06 03:19:26
Overall bit rate mode                    : Variable
Overall bit rate                         : 26.8 Mbps
Network name                             : Ericsson

Video
ID                                       : 308 (0x134)
Menu ID                                  : 1 (0x1)
Format                                   : AVC
Format/Info                              : Advanced Video Codec
Format profile                           : High@L4.1
Format settings, CABAC                   : Yes
Format settings, ReFrames                : 6 frames
Codec ID                                 : 27
Duration                                 : 28mn 31s
Bit rate                                 : 25.1 Mbps
Width                                    : 1 280 pixels
Height                                   : 720 pixels
Display aspect ratio                     : 16:9
Frame rate                               : 59.940 fps
Color space                              : YUV
Chroma subsampling                       : 4:2:0
Bit depth                                : 8 bits
Scan type                                : Progressive
Bits/(Pixel*Frame)                       : 0.455
Stream size                              : 5.00 GiB (94%)
Color range                              : Limited
Color primaries                          : BT.709
Transfer characteristics                 : BT.709
Matrix coefficients                      : BT.709

Audio
ID                                       : 256 (0x100)
Menu ID                                  : 1 (0x1)
Format                                   : MPEG Audio
Format version                           : Version 1
Format profile                           : Layer 2
Codec ID                                 : 3
Duration                                 : 28mn 31s
Bit rate mode                            : Constant
Bit rate                                 : 384 Kbps
Channel(s)                               : 2 channels
Sampling rate                            : 48.0 KHz
Compression mode                         : Lossy
Delay relative to video                  : -8ms
Stream size                              : 78.4 MiB (1%)
Language                                 : English

Download
***Hidden content cannot be quoted.***
Dive
 

Lukazilla

New Member
Registered
Aug 3, 2019
1
0
1
21
Lady Gaga - Dive Bar Tour 2016 (FEED-720p)-ALANiS


Setlist:

  1. Sinner's Prayer
    A-Yo
    Million Reasons
    Perfect Illusion
Code:
Format                                   : MPEG-TS
File size                                : 5.35 GiB
Duration                                 : 28mn 31s
Start time                               : UTC 2016-10-06 03:19:26
End time                                 : UTC 2016-10-06 03:19:26
Overall bit rate mode                    : Variable
Overall bit rate                         : 26.8 Mbps
Network name                             : Ericsson

Video
ID                                       : 308 (0x134)
Menu ID                                  : 1 (0x1)
Format                                   : AVC
Format/Info                              : Advanced Video Codec
Format profile                           : High@L4.1
Format settings, CABAC                   : Yes
Format settings, ReFrames                : 6 frames
Codec ID                                 : 27
Duration                                 : 28mn 31s
Bit rate                                 : 25.1 Mbps
Width                                    : 1 280 pixels
Height                                   : 720 pixels
Display aspect ratio                     : 16:9
Frame rate                               : 59.940 fps
Color space                              : YUV
Chroma subsampling                       : 4:2:0
Bit depth                                : 8 bits
Scan type                                : Progressive
Bits/(Pixel*Frame)                       : 0.455
Stream size                              : 5.00 GiB (94%)
Color range                              : Limited
Color primaries                          : BT.709
Transfer characteristics                 : BT.709
Matrix coefficients                      : BT.709

Audio
ID                                       : 256 (0x100)
Menu ID                                  : 1 (0x1)
Format                                   : MPEG Audio
Format version                           : Version 1
Format profile                           : Layer 2
Codec ID                                 : 3
Duration                                 : 28mn 31s
Bit rate mode                            : Constant
Bit rate                                 : 384 Kbps
Channel(s)                               : 2 channels
Sampling rate                            : 48.0 KHz
Compression mode                         : Lossy
Delay relative to video                  : -8ms
Stream size                              : 78.4 MiB (1%)
Language                                 : English

Download
***Hidden content cannot be quoted.***
Thanks
 

jcs202

New Member
Registered
Jan 3, 2020
26
1
3
38
Lady Gaga - Dive Bar Tour 2016 (FEED-720p)-ALANiS


Setlist:

  1. Sinner's Prayer
    A-Yo
    Million Reasons
    Perfect Illusion
Code:
Format                                   : MPEG-TS
File size                                : 5.35 GiB
Duration                                 : 28mn 31s
Start time                               : UTC 2016-10-06 03:19:26
End time                                 : UTC 2016-10-06 03:19:26
Overall bit rate mode                    : Variable
Overall bit rate                         : 26.8 Mbps
Network name                             : Ericsson

Video
ID                                       : 308 (0x134)
Menu ID                                  : 1 (0x1)
Format                                   : AVC
Format/Info                              : Advanced Video Codec
Format profile                           : High@L4.1
Format settings, CABAC                   : Yes
Format settings, ReFrames                : 6 frames
Codec ID                                 : 27
Duration                                 : 28mn 31s
Bit rate                                 : 25.1 Mbps
Width                                    : 1 280 pixels
Height                                   : 720 pixels
Display aspect ratio                     : 16:9
Frame rate                               : 59.940 fps
Color space                              : YUV
Chroma subsampling                       : 4:2:0
Bit depth                                : 8 bits
Scan type                                : Progressive
Bits/(Pixel*Frame)                       : 0.455
Stream size                              : 5.00 GiB (94%)
Color range                              : Limited
Color primaries                          : BT.709
Transfer characteristics                 : BT.709
Matrix coefficients                      : BT.709

Audio
ID                                       : 256 (0x100)
Menu ID                                  : 1 (0x1)
Format                                   : MPEG Audio
Format version                           : Version 1
Format profile                           : Layer 2
Codec ID                                 : 3
Duration                                 : 28mn 31s
Bit rate mode                            : Constant
Bit rate                                 : 384 Kbps
Channel(s)                               : 2 channels
Sampling rate                            : 48.0 KHz
Compression mode                         : Lossy
Delay relative to video                  : -8ms
Stream size                              : 78.4 MiB (1%)
Language                                 : English

Download
***Hidden content cannot be quoted.***