YouTube Lady Gaga - John Wayne (VIDME 1080p)

NCURBAN

Well-Known Member
Administrative
May 25, 2016
3,363
4,231
113
Lady Gaga - John Wayne (VIDME 1080p)



Genre: Pop
Released: Feb 08, 2017
Copyright: (C) 2017 Interscope Records
Code:
Format                                   : MPEG-TS
File size                                : 2.79 GiB
Duration                                 : 13 min 31 s
Overall bit rate mode                    : Variable
Overall bit rate                         : 29.5 Mb/s

Video
ID                                       : 481 (0x1E1)
Menu ID                                  : 1 (0x1)
Format                                   : AVC
Format/Info                              : Advanced Video Codec
Format profile                           : High 4:2:2@L4.1
Format settings, CABAC                   : Yes
Format settings, ReFrames                : 3 frames
Codec ID                                 : 27
Duration                                 : 13 min 31 s
Bit rate mode                            : Constant
Bit rate                                 : 28.2 Mb/s
Width                                    : 1 920 pixels
Height                                   : 1 080 pixels
Display aspect ratio                     : 16:9
Frame rate                               : 29.970 (30000/1001) FPS
Color space                              : YUV
Chroma subsampling                       : 4:2:2
Bit depth                                : 8 bits
Scan type                                : Interlaced
Scan type, store method                  : Separated fields
Scan order                               : Top Field First
Bits/(Pixel*Frame)                       : 0.454
Stream size                              : 2.59 GiB (93%)
Color range                              : Limited
Color primaries                          : BT.709
Transfer characteristics                 : BT.709
Matrix coefficients                      : BT.709

Audio #1
ID                                       : 482 (0x1E2)
Menu ID                                  : 1 (0x1)
Format                                   : MPEG Audio
Format version                           : Version 1
Format profile                           : Layer 2
Codec ID                                 : 3
Duration                                 : 13 min 31 s
Bit rate mode                            : Constant
Bit rate                                 : 256 kb/s
Channel(s)                               : 2 channels
Sampling rate                            : 48.0 kHz
Compression mode                         : Lossy
Delay relative to video                  : 46 ms
Stream size                              : 24.8 MiB (1%)
Language                                 : English

Download
You must reply before you can see the hidden data contained here.
 

jcs202

New Member
Registered
Jan 3, 2020
26
1
3
38
Lady Gaga - John Wayne (VIDME 1080p)




Code:
Format                                   : MPEG-TS
File size                                : 2.79 GiB
Duration                                 : 13 min 31 s
Overall bit rate mode                    : Variable
Overall bit rate                         : 29.5 Mb/s

Video
ID                                       : 481 (0x1E1)
Menu ID                                  : 1 (0x1)
Format                                   : AVC
Format/Info                              : Advanced Video Codec
Format profile                           : High 4:2:2@L4.1
Format settings, CABAC                   : Yes
Format settings, ReFrames                : 3 frames
Codec ID                                 : 27
Duration                                 : 13 min 31 s
Bit rate mode                            : Constant
Bit rate                                 : 28.2 Mb/s
Width                                    : 1 920 pixels
Height                                   : 1 080 pixels
Display aspect ratio                     : 16:9
Frame rate                               : 29.970 (30000/1001) FPS
Color space                              : YUV
Chroma subsampling                       : 4:2:2
Bit depth                                : 8 bits
Scan type                                : Interlaced
Scan type, store method                  : Separated fields
Scan order                               : Top Field First
Bits/(Pixel*Frame)                       : 0.454
Stream size                              : 2.59 GiB (93%)
Color range                              : Limited
Color primaries                          : BT.709
Transfer characteristics                 : BT.709
Matrix coefficients                      : BT.709

Audio #1
ID                                       : 482 (0x1E2)
Menu ID                                  : 1 (0x1)
Format                                   : MPEG Audio
Format version                           : Version 1
Format profile                           : Layer 2
Codec ID                                 : 3
Duration                                 : 13 min 31 s
Bit rate mode                            : Constant
Bit rate                                 : 256 kb/s
Channel(s)                               : 2 channels
Sampling rate                            : 48.0 kHz
Compression mode                         : Lossy
Delay relative to video                  : 46 ms
Stream size                              : 24.8 MiB (1%)
Language                                 : English

Download
***Hidden content cannot be quoted.***