ProRes Lady Gaga - Judas (LPCM 24 Bits-Master-ProRes-1080p)

NCURBAN

Well-Known Member
Administrative
May 25, 2016
3,347
3,620
113
Lady Gaga - Judas (LPCM 24 Bits-Master-ProRes-1080p)



Genres: Pop
Released: May 03, 2011
℗ 2011 Interscope Records

Code:
Format                                   : MPEG-4
Format profile                           : QuickTime
Codec ID                                 : qt  
File size                                : 6.45 GiB
Duration                                 : 5mn 34s
Overall bit rate mode                    : Variable
Overall bit rate                         : 166 Mbps
Encoded date                             : UTC 2011-05-02 14:45:28
Tagged date                              : UTC 2011-05-02 19:01:54
Writing library                          : Apple QuickTime 7.6.9
com.apple.quicktime.player.movie.audio.m : (Binary)
Media/UUID                               : 7B85D334-9651-49DE-A9AA-BB20A01E52F7

Video
ID                                       : 4
Format                                   : ProRes
Format version                           : Version 0
Format profile                           : 422 HQ
Codec ID                                 : apch
Duration                                 : 5mn 34s
Source duration                          : 5mn 34s
Bit rate mode                            : Variable
Bit rate                                 : 163 Mbps
Width                                    : 1 920 pixels
Height                                   : 1 080 pixels
Display aspect ratio                     : 16:9
Frame rate mode                          : Constant
Frame rate                               : 23.976 fps
Color space                              : YUV
Chroma subsampling                       : 4:2:2
Scan type                                : Progressive
Bits/(Pixel*Frame)                       : 3.286
Stream size                              : 6.36 GiB (99%)
Source stream size                       : 6.36 GiB (99%)
Writing library                          : Apple
Language                                 : English
Encoded date                             : UTC 2011-05-02 19:01:54
Tagged date                              : UTC 2011-05-02 19:01:54
Matrix coefficients                      : BT.709

Audio
ID                                       : 1
Format                                   : PCM
Format settings, Endianness              : Big
Format settings, Sign                    : Unsigned
Codec ID                                 : in24
Duration                                 : 5mn 34s
Bit rate mode                            : Constant
Bit rate                                 : 2 304 Kbps
Channel(s)                               : 2 channels
Channel positions                        : Front: L R
Sampling rate                            : 48.0 KHz
Bit depth                                : 24 bits
Stream size                              : 91.9 MiB (1%)
Language                                 : English
Encoded date                             : UTC 2011-05-02 14:45:28
Tagged date                              : UTC 2011-05-02 14:49:11


Download
[HIDE-REPLY]MEGA[/HIDE-REPLY]
 
  • Like
Reactions: JosephGC

Cassan

New Member
Registered
Apr 12, 2019
2
0
1
23
Lady Gaga - Judas (LPCM 24 Bits-Master-ProRes-1080p)



Genres: Pop
Released: May 03, 2011
℗ 2011 Interscope Records

Code:
Format                                   : MPEG-4
Format profile                           : QuickTime
Codec ID                                 : qt 
File size                                : 6.45 GiB
Duration                                 : 5mn 34s
Overall bit rate mode                    : Variable
Overall bit rate                         : 166 Mbps
Encoded date                             : UTC 2011-05-02 14:45:28
Tagged date                              : UTC 2011-05-02 19:01:54
Writing library                          : Apple QuickTime 7.6.9
com.apple.quicktime.player.movie.audio.m : (Binary)
Media/UUID                               : 7B85D334-9651-49DE-A9AA-BB20A01E52F7

Video
ID                                       : 4
Format                                   : ProRes
Format version                           : Version 0
Format profile                           : 422 HQ
Codec ID                                 : apch
Duration                                 : 5mn 34s
Source duration                          : 5mn 34s
Bit rate mode                            : Variable
Bit rate                                 : 163 Mbps
Width                                    : 1 920 pixels
Height                                   : 1 080 pixels
Display aspect ratio                     : 16:9
Frame rate mode                          : Constant
Frame rate                               : 23.976 fps
Color space                              : YUV
Chroma subsampling                       : 4:2:2
Scan type                                : Progressive
Bits/(Pixel*Frame)                       : 3.286
Stream size                              : 6.36 GiB (99%)
Source stream size                       : 6.36 GiB (99%)
Writing library                          : Apple
Language                                 : English
Encoded date                             : UTC 2011-05-02 19:01:54
Tagged date                              : UTC 2011-05-02 19:01:54
Matrix coefficients                      : BT.709

Audio
ID                                       : 1
Format                                   : PCM
Format settings, Endianness              : Big
Format settings, Sign                    : Unsigned
Codec ID                                 : in24
Duration                                 : 5mn 34s
Bit rate mode                            : Constant
Bit rate                                 : 2 304 Kbps
Channel(s)                               : 2 channels
Channel positions                        : Front: L R
Sampling rate                            : 48.0 KHz
Bit depth                                : 24 bits
Stream size                              : 91.9 MiB (1%)
Language                                 : English
Encoded date                             : UTC 2011-05-02 14:45:28
Tagged date                              : UTC 2011-05-02 14:49:11



Download
***Hidden content cannot be quoted.***
Thank u
 

Raj

Member
Registered
Jul 3, 2019
67
0
6
29
Thanks
Lady Gaga - Judas (LPCM 24 Bits-Master-ProRes-1080p)



Genres: Pop
Released: May 03, 2011
℗ 2011 Interscope Records

Code:
Format                                   : MPEG-4
Format profile                           : QuickTime
Codec ID                                 : qt 
File size                                : 6.45 GiB
Duration                                 : 5mn 34s
Overall bit rate mode                    : Variable
Overall bit rate                         : 166 Mbps
Encoded date                             : UTC 2011-05-02 14:45:28
Tagged date                              : UTC 2011-05-02 19:01:54
Writing library                          : Apple QuickTime 7.6.9
com.apple.quicktime.player.movie.audio.m : (Binary)
Media/UUID                               : 7B85D334-9651-49DE-A9AA-BB20A01E52F7

Video
ID                                       : 4
Format                                   : ProRes
Format version                           : Version 0
Format profile                           : 422 HQ
Codec ID                                 : apch
Duration                                 : 5mn 34s
Source duration                          : 5mn 34s
Bit rate mode                            : Variable
Bit rate                                 : 163 Mbps
Width                                    : 1 920 pixels
Height                                   : 1 080 pixels
Display aspect ratio                     : 16:9
Frame rate mode                          : Constant
Frame rate                               : 23.976 fps
Color space                              : YUV
Chroma subsampling                       : 4:2:2
Scan type                                : Progressive
Bits/(Pixel*Frame)                       : 3.286
Stream size                              : 6.36 GiB (99%)
Source stream size                       : 6.36 GiB (99%)
Writing library                          : Apple
Language                                 : English
Encoded date                             : UTC 2011-05-02 19:01:54
Tagged date                              : UTC 2011-05-02 19:01:54
Matrix coefficients                      : BT.709

Audio
ID                                       : 1
Format                                   : PCM
Format settings, Endianness              : Big
Format settings, Sign                    : Unsigned
Codec ID                                 : in24
Duration                                 : 5mn 34s
Bit rate mode                            : Constant
Bit rate                                 : 2 304 Kbps
Channel(s)                               : 2 channels
Channel positions                        : Front: L R
Sampling rate                            : 48.0 KHz
Bit depth                                : 24 bits
Stream size                              : 91.9 MiB (1%)
Language                                 : English
Encoded date                             : UTC 2011-05-02 14:45:28
Tagged date                              : UTC 2011-05-02 14:49:11



Download
***Hidden content cannot be quoted.***
 

DavidDizzer

New Member
Registered
Jun 8, 2019
6
0
1
26
Lady Gaga - Judas (LPCM 24 Bits-Master-ProRes-1080p)



Genres: Pop
Released: May 03, 2011
℗ 2011 Interscope Records

Code:
Format                                   : MPEG-4
Format profile                           : QuickTime
Codec ID                                 : qt 
File size                                : 6.45 GiB
Duration                                 : 5mn 34s
Overall bit rate mode                    : Variable
Overall bit rate                         : 166 Mbps
Encoded date                             : UTC 2011-05-02 14:45:28
Tagged date                              : UTC 2011-05-02 19:01:54
Writing library                          : Apple QuickTime 7.6.9
com.apple.quicktime.player.movie.audio.m : (Binary)
Media/UUID                               : 7B85D334-9651-49DE-A9AA-BB20A01E52F7

Video
ID                                       : 4
Format                                   : ProRes
Format version                           : Version 0
Format profile                           : 422 HQ
Codec ID                                 : apch
Duration                                 : 5mn 34s
Source duration                          : 5mn 34s
Bit rate mode                            : Variable
Bit rate                                 : 163 Mbps
Width                                    : 1 920 pixels
Height                                   : 1 080 pixels
Display aspect ratio                     : 16:9
Frame rate mode                          : Constant
Frame rate                               : 23.976 fps
Color space                              : YUV
Chroma subsampling                       : 4:2:2
Scan type                                : Progressive
Bits/(Pixel*Frame)                       : 3.286
Stream size                              : 6.36 GiB (99%)
Source stream size                       : 6.36 GiB (99%)
Writing library                          : Apple
Language                                 : English
Encoded date                             : UTC 2011-05-02 19:01:54
Tagged date                              : UTC 2011-05-02 19:01:54
Matrix coefficients                      : BT.709

Audio
ID                                       : 1
Format                                   : PCM
Format settings, Endianness              : Big
Format settings, Sign                    : Unsigned
Codec ID                                 : in24
Duration                                 : 5mn 34s
Bit rate mode                            : Constant
Bit rate                                 : 2 304 Kbps
Channel(s)                               : 2 channels
Channel positions                        : Front: L R
Sampling rate                            : 48.0 KHz
Bit depth                                : 24 bits
Stream size                              : 91.9 MiB (1%)
Language                                 : English
Encoded date                             : UTC 2011-05-02 14:45:28
Tagged date                              : UTC 2011-05-02 14:49:11



Download
***Hidden content cannot be quoted.***
Thank you so much !
 

Saimoon

New Member
Registered
Aug 28, 2019
20
1
1
23
Lady Gaga - Judas (LPCM 24 Bits-Master-ProRes-1080p)



Genres: Pop
Released: May 03, 2011
℗ 2011 Interscope Records

Code:
Format                                   : MPEG-4
Format profile                           : QuickTime
Codec ID                                 : qt 
File size                                : 6.45 GiB
Duration                                 : 5mn 34s
Overall bit rate mode                    : Variable
Overall bit rate                         : 166 Mbps
Encoded date                             : UTC 2011-05-02 14:45:28
Tagged date                              : UTC 2011-05-02 19:01:54
Writing library                          : Apple QuickTime 7.6.9
com.apple.quicktime.player.movie.audio.m : (Binary)
Media/UUID                               : 7B85D334-9651-49DE-A9AA-BB20A01E52F7

Video
ID                                       : 4
Format                                   : ProRes
Format version                           : Version 0
Format profile                           : 422 HQ
Codec ID                                 : apch
Duration                                 : 5mn 34s
Source duration                          : 5mn 34s
Bit rate mode                            : Variable
Bit rate                                 : 163 Mbps
Width                                    : 1 920 pixels
Height                                   : 1 080 pixels
Display aspect ratio                     : 16:9
Frame rate mode                          : Constant
Frame rate                               : 23.976 fps
Color space                              : YUV
Chroma subsampling                       : 4:2:2
Scan type                                : Progressive
Bits/(Pixel*Frame)                       : 3.286
Stream size                              : 6.36 GiB (99%)
Source stream size                       : 6.36 GiB (99%)
Writing library                          : Apple
Language                                 : English
Encoded date                             : UTC 2011-05-02 19:01:54
Tagged date                              : UTC 2011-05-02 19:01:54
Matrix coefficients                      : BT.709

Audio
ID                                       : 1
Format                                   : PCM
Format settings, Endianness              : Big
Format settings, Sign                    : Unsigned
Codec ID                                 : in24
Duration                                 : 5mn 34s
Bit rate mode                            : Constant
Bit rate                                 : 2 304 Kbps
Channel(s)                               : 2 channels
Channel positions                        : Front: L R
Sampling rate                            : 48.0 KHz
Bit depth                                : 24 bits
Stream size                              : 91.9 MiB (1%)
Language                                 : English
Encoded date                             : UTC 2011-05-02 14:45:28
Tagged date                              : UTC 2011-05-02 14:49:11



Download
***Hidden content cannot be quoted.***
 

deviantboy25

Member
Registered
Aug 12, 2019
40
0
6
26
Lady Gaga - Judas (LPCM 24 Bits-Master-ProRes-1080p)



Genres: Pop
Released: May 03, 2011
℗ 2011 Interscope Records

Code:
Format                                   : MPEG-4
Format profile                           : QuickTime
Codec ID                                 : qt 
File size                                : 6.45 GiB
Duration                                 : 5mn 34s
Overall bit rate mode                    : Variable
Overall bit rate                         : 166 Mbps
Encoded date                             : UTC 2011-05-02 14:45:28
Tagged date                              : UTC 2011-05-02 19:01:54
Writing library                          : Apple QuickTime 7.6.9
com.apple.quicktime.player.movie.audio.m : (Binary)
Media/UUID                               : 7B85D334-9651-49DE-A9AA-BB20A01E52F7

Video
ID                                       : 4
Format                                   : ProRes
Format version                           : Version 0
Format profile                           : 422 HQ
Codec ID                                 : apch
Duration                                 : 5mn 34s
Source duration                          : 5mn 34s
Bit rate mode                            : Variable
Bit rate                                 : 163 Mbps
Width                                    : 1 920 pixels
Height                                   : 1 080 pixels
Display aspect ratio                     : 16:9
Frame rate mode                          : Constant
Frame rate                               : 23.976 fps
Color space                              : YUV
Chroma subsampling                       : 4:2:2
Scan type                                : Progressive
Bits/(Pixel*Frame)                       : 3.286
Stream size                              : 6.36 GiB (99%)
Source stream size                       : 6.36 GiB (99%)
Writing library                          : Apple
Language                                 : English
Encoded date                             : UTC 2011-05-02 19:01:54
Tagged date                              : UTC 2011-05-02 19:01:54
Matrix coefficients                      : BT.709

Audio
ID                                       : 1
Format                                   : PCM
Format settings, Endianness              : Big
Format settings, Sign                    : Unsigned
Codec ID                                 : in24
Duration                                 : 5mn 34s
Bit rate mode                            : Constant
Bit rate                                 : 2 304 Kbps
Channel(s)                               : 2 channels
Channel positions                        : Front: L R
Sampling rate                            : 48.0 KHz
Bit depth                                : 24 bits
Stream size                              : 91.9 MiB (1%)
Language                                 : English
Encoded date                             : UTC 2011-05-02 14:45:28
Tagged date                              : UTC 2011-05-02 14:49:11



Download
***Hidden content cannot be quoted.***