HDTV Lady Gaga - Just Dance (So You Think You Can Dance 2008) [HDTV-1080i]

NCURBAN

Well-Known Member
Administrative
May 25, 2016
3,347
3,892
113
Lady Gaga - Just Dance (So You Think You Can Dance 2008) [HDTV-1080i]



Code:
Format                                   : MPEG-TS
File size                                : 403 MiB
Duration                                 : 3mn 21s
Overall bit rate mode                    : Variable
Overall bit rate                         : 16.8 Mbps

Video
ID                                       : 514 (0x202)
Menu ID                                  : 1601 (0x641)
Format                                   : MPEG Video
Format version                           : Version 2
Format profile                           : Main@High
Format settings, BVOP                    : Yes
Format settings, Matrix                  : Custom
Format settings, GOP                     : M=3, N=12
Format settings, picture structure       : Frame
Codec ID                                 : 2
Duration                                 : 3mn 21s
Bit rate mode                            : Variable
Bit rate                                 : 15.5 Mbps
Maximum bit rate                         : 90.0 Mbps
Width                                    : 1 920 pixels
Height                                   : 1 080 pixels
Display aspect ratio                     : 16:9
Frame rate                               : 25.000 fps
Color space                              : YUV
Chroma subsampling                       : 4:2:0
Bit depth                                : 8 bits
Scan type                                : Interlaced
Scan order                               : Top Field First
Compression mode                         : Lossy
Bits/(Pixel*Frame)                       : 0.299
Time code of first frame                 : 18:01:51:16
Time code source                         : Group of pictures header
GOP, Open/Closed                         : Open
Stream size                              : 372 MiB (92%)

Audio
ID                                       : 672 (0x2A0)
Menu ID                                  : 1601 (0x641)
Format                                   : AC-3
Format/Info                              : Audio Coding 3
Format profile                           : Dolby Digital
Mode extension                           : CM (complete main)
Format settings, Endianness              : Big
Codec ID                                 : 6
Duration                                 : 3mn 21s
Bit rate mode                            : Constant
Bit rate                                 : 448 Kbps
Channel(s)                               : 2 channels
Channel positions                        : Front: L R
Sampling rate                            : 48.0 KHz
Compression mode                         : Lossy
Delay relative to video                  : -466ms
Stream size                              : 10.8 MiB (3%)
Language                                 : English
Language, more info                      : Clean effects

Text
ID                                       : 577 (0x241)-801
Menu ID                                  : 1601 (0x641)
Format                                   : Teletext Subtitle
Language                                 : English

Menu
ID                                       : 257 (0x101)
Menu ID                                  : 1601 (0x641)
List                                     : 514 (0x202) (MPEG Video) / 672 (0x2A0) (AC-3, English) / 577 (0x241) ()
Language                                 :  / English

Download
[HIDE-REPLY]MEGA[/HIDE-REPLY]
 

Andre.braz

New Member
Registered
Apr 3, 2018
14
0
1
25
Lady Gaga - Just Dance (So You Think You Can Dance 2008) [HDTV-1080i]



Code:
Format                                   : MPEG-TS
File size                                : 403 MiB
Duration                                 : 3mn 21s
Overall bit rate mode                    : Variable
Overall bit rate                         : 16.8 Mbps

Video
ID                                       : 514 (0x202)
Menu ID                                  : 1601 (0x641)
Format                                   : MPEG Video
Format version                           : Version 2
Format profile                           : Main@High
Format settings, BVOP                    : Yes
Format settings, Matrix                  : Custom
Format settings, GOP                     : M=3, N=12
Format settings, picture structure       : Frame
Codec ID                                 : 2
Duration                                 : 3mn 21s
Bit rate mode                            : Variable
Bit rate                                 : 15.5 Mbps
Maximum bit rate                         : 90.0 Mbps
Width                                    : 1 920 pixels
Height                                   : 1 080 pixels
Display aspect ratio                     : 16:9
Frame rate                               : 25.000 fps
Color space                              : YUV
Chroma subsampling                       : 4:2:0
Bit depth                                : 8 bits
Scan type                                : Interlaced
Scan order                               : Top Field First
Compression mode                         : Lossy
Bits/(Pixel*Frame)                       : 0.299
Time code of first frame                 : 18:01:51:16
Time code source                         : Group of pictures header
GOP, Open/Closed                         : Open
Stream size                              : 372 MiB (92%)

Audio
ID                                       : 672 (0x2A0)
Menu ID                                  : 1601 (0x641)
Format                                   : AC-3
Format/Info                              : Audio Coding 3
Format profile                           : Dolby Digital
Mode extension                           : CM (complete main)
Format settings, Endianness              : Big
Codec ID                                 : 6
Duration                                 : 3mn 21s
Bit rate mode                            : Constant
Bit rate                                 : 448 Kbps
Channel(s)                               : 2 channels
Channel positions                        : Front: L R
Sampling rate                            : 48.0 KHz
Modo de compressão: com perdas
Atraso em relação ao vídeo: -466 ms
Tamanho do stream: 10,8 MiB (3%)
Língua inglesa
Language, mais informações: efeitos de limpeza

Texto
ID: 577 (0x241) -801
ID do Menu: 1601 (0x641)
Formato: subtítulo de teletexto
Língua inglesa

Cardápio
ID: 257 (0x101)
ID do Menu: 1601 (0x641)
Lista: 514 (0x202) (vídeo MPEG) / 672 (0 x 2A0) (AC-3, inglês) / 577 (0x241) ()
Idioma: / Inglês [/ CODE][/LEFT]
[CENTER][/SPOILER][/CENTER]

Baixar
[B]*** Conteúdo oculto não pode ser citado. ***[/B] [/ QUOTE]
JjjJust dance
 

thisguy1234

New Member
Registered
Apr 7, 2019
4
0
1
33
Lady Gaga - Just Dance (So You Think You Can Dance 2008) [HDTV-1080i]



Code:
Format                                   : MPEG-TS
File size                                : 403 MiB
Duration                                 : 3mn 21s
Overall bit rate mode                    : Variable
Overall bit rate                         : 16.8 Mbps

Video
ID                                       : 514 (0x202)
Menu ID                                  : 1601 (0x641)
Format                                   : MPEG Video
Format version                           : Version 2
Format profile                           : Main@High
Format settings, BVOP                    : Yes
Format settings, Matrix                  : Custom
Format settings, GOP                     : M=3, N=12
Format settings, picture structure       : Frame
Codec ID                                 : 2
Duration                                 : 3mn 21s
Bit rate mode                            : Variable
Bit rate                                 : 15.5 Mbps
Maximum bit rate                         : 90.0 Mbps
Width                                    : 1 920 pixels
Height                                   : 1 080 pixels
Display aspect ratio                     : 16:9
Frame rate                               : 25.000 fps
Color space                              : YUV
Chroma subsampling                       : 4:2:0
Bit depth                                : 8 bits
Scan type                                : Interlaced
Scan order                               : Top Field First
Compression mode                         : Lossy
Bits/(Pixel*Frame)                       : 0.299
Time code of first frame                 : 18:01:51:16
Time code source                         : Group of pictures header
GOP, Open/Closed                         : Open
Stream size                              : 372 MiB (92%)

Audio
ID                                       : 672 (0x2A0)
Menu ID                                  : 1601 (0x641)
Format                                   : AC-3
Format/Info                              : Audio Coding 3
Format profile                           : Dolby Digital
Mode extension                           : CM (complete main)
Format settings, Endianness              : Big
Codec ID                                 : 6
Duration                                 : 3mn 21s
Bit rate mode                            : Constant
Bit rate                                 : 448 Kbps
Channel(s)                               : 2 channels
Channel positions                        : Front: L R
Sampling rate                            : 48.0 KHz
Compression mode                         : Lossy
Delay relative to video                  : -466ms
Stream size                              : 10.8 MiB (3%)
Language                                 : English
Language, more info                      : Clean effects

Text
ID                                       : 577 (0x241)-801
Menu ID                                  : 1601 (0x641)
Format                                   : Teletext Subtitle
Language                                 : English

Menu
ID                                       : 257 (0x101)
Menu ID                                  : 1601 (0x641)
List                                     : 514 (0x202) (MPEG Video) / 672 (0x2A0) (AC-3, English) / 577 (0x241) ()
Language                                 :  / English

Download
***Hidden content cannot be quoted.***
thank you
 

paraga

New Member
Registered
Aug 4, 2019
25
0
1
23
Lady Gaga - Just Dance (So You Think You Can Dance 2008) [HDTV-1080i]



Code:
Format                                   : MPEG-TS
File size                                : 403 MiB
Duration                                 : 3mn 21s
Overall bit rate mode                    : Variable
Overall bit rate                         : 16.8 Mbps

Video
ID                                       : 514 (0x202)
Menu ID                                  : 1601 (0x641)
Format                                   : MPEG Video
Format version                           : Version 2
Format profile                           : Main@High
Format settings, BVOP                    : Yes
Format settings, Matrix                  : Custom
Format settings, GOP                     : M=3, N=12
Format settings, picture structure       : Frame
Codec ID                                 : 2
Duration                                 : 3mn 21s
Bit rate mode                            : Variable
Bit rate                                 : 15.5 Mbps
Maximum bit rate                         : 90.0 Mbps
Width                                    : 1 920 pixels
Height                                   : 1 080 pixels
Display aspect ratio                     : 16:9
Frame rate                               : 25.000 fps
Color space                              : YUV
Chroma subsampling                       : 4:2:0
Bit depth                                : 8 bits
Scan type                                : Interlaced
Scan order                               : Top Field First
Compression mode                         : Lossy
Bits/(Pixel*Frame)                       : 0.299
Time code of first frame                 : 18:01:51:16
Time code source                         : Group of pictures header
GOP, Open/Closed                         : Open
Stream size                              : 372 MiB (92%)

Audio
ID                                       : 672 (0x2A0)
Menu ID                                  : 1601 (0x641)
Format                                   : AC-3
Format/Info                              : Audio Coding 3
Format profile                           : Dolby Digital
Mode extension                           : CM (complete main)
Format settings, Endianness              : Big
Codec ID                                 : 6
Duration                                 : 3mn 21s
Bit rate mode                            : Constant
Bit rate                                 : 448 Kbps
Channel(s)                               : 2 channels
Channel positions                        : Front: L R
Sampling rate                            : 48.0 KHz
Compression mode                         : Lossy
Delay relative to video                  : -466ms
Stream size                              : 10.8 MiB (3%)
Language                                 : English
Language, more info                      : Clean effects

Text
ID                                       : 577 (0x241)-801
Menu ID                                  : 1601 (0x641)
Format                                   : Teletext Subtitle
Language                                 : English

Menu
ID                                       : 257 (0x101)
Menu ID                                  : 1601 (0x641)
List                                     : 514 (0x202) (MPEG Video) / 672 (0x2A0) (AC-3, English) / 577 (0x241) ()
Language                                 :  / English

Download
***Hidden content cannot be quoted.***
hi
 

Sadsun0000

Member
Registered
Aug 1, 2019
53
0
6
32
Lady Gaga - Just Dance (So You Think You Can Dance 2008) [HDTV-1080i]



Code:
Format                                   : MPEG-TS
File size                                : 403 MiB
Duration                                 : 3mn 21s
Overall bit rate mode                    : Variable
Overall bit rate                         : 16.8 Mbps

Video
ID                                       : 514 (0x202)
Menu ID                                  : 1601 (0x641)
Format                                   : MPEG Video
Format version                           : Version 2
Format profile                           : Main@High
Format settings, BVOP                    : Yes
Format settings, Matrix                  : Custom
Format settings, GOP                     : M=3, N=12
Format settings, picture structure       : Frame
Codec ID                                 : 2
Duration                                 : 3mn 21s
Bit rate mode                            : Variable
Bit rate                                 : 15.5 Mbps
Maximum bit rate                         : 90.0 Mbps
Width                                    : 1 920 pixels
Height                                   : 1 080 pixels
Display aspect ratio                     : 16:9
Frame rate                               : 25.000 fps
Color space                              : YUV
Chroma subsampling                       : 4:2:0
Bit depth                                : 8 bits
Scan type                                : Interlaced
Scan order                               : Top Field First
Compression mode                         : Lossy
Bits/(Pixel*Frame)                       : 0.299
Time code of first frame                 : 18:01:51:16
Time code source                         : Group of pictures header
GOP, Open/Closed                         : Open
Stream size                              : 372 MiB (92%)

Audio
ID                                       : 672 (0x2A0)
Menu ID                                  : 1601 (0x641)
Format                                   : AC-3
Format/Info                              : Audio Coding 3
Format profile                           : Dolby Digital
Mode extension                           : CM (complete main)
Format settings, Endianness              : Big
Codec ID                                 : 6
Duration                                 : 3mn 21s
Bit rate mode                            : Constant
Bit rate                                 : 448 Kbps
Channel(s)                               : 2 channels
Channel positions                        : Front: L R
Sampling rate                            : 48.0 KHz
Compression mode                         : Lossy
Delay relative to video                  : -466ms
Stream size                              : 10.8 MiB (3%)
Language                                 : English
Language, more info                      : Clean effects

Text
ID                                       : 577 (0x241)-801
Menu ID                                  : 1601 (0x641)
Format                                   : Teletext Subtitle
Language                                 : English

Menu
ID                                       : 257 (0x101)
Menu ID                                  : 1601 (0x641)
List                                     : 514 (0x202) (MPEG Video) / 672 (0x2A0) (AC-3, English) / 577 (0x241) ()
Language                                 :  / English

Download
***Hidden content cannot be quoted.***
 

Andreyyyyykaaaa

New Member
Registered
Dec 17, 2019
7
0
1
30
супер она великолептна слежу за ней с самого начала ее карьеры
 

jcs202

New Member
Registered
Jan 3, 2020
26
1
3
38
Lady Gaga - Just Dance (So You Think You Can Dance 2008) [HDTV-1080i]



Code:
Format                                   : MPEG-TS
File size                                : 403 MiB
Duration                                 : 3mn 21s
Overall bit rate mode                    : Variable
Overall bit rate                         : 16.8 Mbps

Video
ID                                       : 514 (0x202)
Menu ID                                  : 1601 (0x641)
Format                                   : MPEG Video
Format version                           : Version 2
Format profile                           : Main@High
Format settings, BVOP                    : Yes
Format settings, Matrix                  : Custom
Format settings, GOP                     : M=3, N=12
Format settings, picture structure       : Frame
Codec ID                                 : 2
Duration                                 : 3mn 21s
Bit rate mode                            : Variable
Bit rate                                 : 15.5 Mbps
Maximum bit rate                         : 90.0 Mbps
Width                                    : 1 920 pixels
Height                                   : 1 080 pixels
Display aspect ratio                     : 16:9
Frame rate                               : 25.000 fps
Color space                              : YUV
Chroma subsampling                       : 4:2:0
Bit depth                                : 8 bits
Scan type                                : Interlaced
Scan order                               : Top Field First
Compression mode                         : Lossy
Bits/(Pixel*Frame)                       : 0.299
Time code of first frame                 : 18:01:51:16
Time code source                         : Group of pictures header
GOP, Open/Closed                         : Open
Stream size                              : 372 MiB (92%)

Audio
ID                                       : 672 (0x2A0)
Menu ID                                  : 1601 (0x641)
Format                                   : AC-3
Format/Info                              : Audio Coding 3
Format profile                           : Dolby Digital
Mode extension                           : CM (complete main)
Format settings, Endianness              : Big
Codec ID                                 : 6
Duration                                 : 3mn 21s
Bit rate mode                            : Constant
Bit rate                                 : 448 Kbps
Channel(s)                               : 2 channels
Channel positions                        : Front: L R
Sampling rate                            : 48.0 KHz
Compression mode                         : Lossy
Delay relative to video                  : -466ms
Stream size                              : 10.8 MiB (3%)
Language                                 : English
Language, more info                      : Clean effects

Text
ID                                       : 577 (0x241)-801
Menu ID                                  : 1601 (0x641)
Format                                   : Teletext Subtitle
Language                                 : English

Menu
ID                                       : 257 (0x101)
Menu ID                                  : 1601 (0x641)
List                                     : 514 (0x202) (MPEG Video) / 672 (0x2A0) (AC-3, English) / 577 (0x241) ()
Language                                 :  / English

Download
***Hidden content cannot be quoted.***