HDTV Lady Gaga - Million Reasons (The Royal Variety Performance 2016) [HDTV-1080i]-kmfan

NCURBAN

Well-Known Member
Administrative
May 25, 2016
3,347
3,859
113
Lady Gaga - Million Reasons (The Royal Variety Performance 2016) [HDTV-1080i]-kmfan


Gener: Pop
At: The Royal Variety Performance
Date: Dec 13, 2016
Code:
Format                                   : MPEG-TS
File size                                : 218 MiB
Duration                                 : 4 min 27 s
Overall bit rate mode                    : Variable
Overall bit rate                         : 6 841 kb/s

Video
ID                                       : 2330 (0x91A)
Menu ID                                  : 20740 (0x5104)
Format                                   : AVC
Format/Info                              : Advanced Video Codec
Format profile                           : Main@L4
Format settings, CABAC                   : Yes
Format settings, ReFrames                : 4 frames
Codec ID                                 : 27
Duration                                 : 4 min 27 s
Bit rate                                 : 6 148 kb/s
Width                                    : 1 920 pixels
Height                                   : 1 080 pixels
Display aspect ratio                     : 16:9
Frame rate                               : 25.000 FPS
Standard                                 : Component
Color space                              : YUV
Chroma subsampling                       : 4:2:0
Bit depth                                : 8 bits
Scan type                                : MBAFF
Scan type, store method                  : Separated fields
Scan order                               : Top Field First
Bits/(Pixel*Frame)                       : 0.119
Stream size                              : 196 MiB (90%)
Color range                              : Limited
Color primaries                          : BT.709
Transfer characteristics                 : BT.709
Matrix coefficients                      : BT.709

Audio #1
ID                                       : 2331 (0x91B)
Menu ID                                  : 20740 (0x5104)
Format                                   : AC-3
Format/Info                              : Audio Coding 3
Mode extension                           : CM (complete main)
Format settings, Endianness              : Big
Codec ID                                 : 6
Duration                                 : 4 min 27 s
Bit rate mode                            : Constant
Bit rate                                 : 192 kb/s
Channel(s)                               : 2 channels
Channel positions                        : Front: L R
Sampling rate                            : 48.0 kHz
Frame rate                               : 31.250 FPS (1536 spf)
Bit depth                                : 16 bits
Compression mode                         : Lossy
Stream size                              : 6.13 MiB (3%)
Language                                 : English
Download
You must reply before you can see the hidden data contained here.
 

Andre.braz

New Member
Registered
Apr 3, 2018
14
0
1
25
[QUOTE = "NCURBAN, postagem: 636, membro: 1"]
Lady Gaga - Milhões de Razões (The Royal Variety Performance 2016) [HDTV-1080i] -kmfan




[SPOILER = "MediaInfo"]​
[CÓDIGO] Formato: MPEG-TS
Tamanho do arquivo: 218 MiB
Duração: 4 min 27 s
Modo de taxa de bits global: Variável
Taxa de bits total: 6 841 kb / s

Vídeo
ID: 2330 (0x91A)
Menu ID : 20740 (0x5104)
Format : AVC
Format/Info : Advanced Video Codec
Format profile : Main@L4
Format settings, CABAC : Yes
Format settings, ReFrames : 4 frames
Codec ID : 27
Duration : 4 min 27 s
Bit rate : 6 148 kb/s
Width : 1 920 pixels
Height : 1 080 pixels
Display aspect ratio : 16:9
Frame rate : 25.000 FPS
Standard : Component
Color space : YUV
Chroma subsampling : 4:2:0
Bit depth : 8 bits
Scan type : MBAFF
Scan type, store method : Separated fields
Scan order : Top Field First
Bits/(Pixel*Frame) : 0.119
Stream size : 196 MiB (90%)
Color range : Limited
Color primaries : BT.709
Transfer characteristics : BT.709
Matrix coefficients : BT.709

Audio #1
ID : 2331 (0x91B)
Menu ID : 20740 (0x5104)
Format : AC-3
Format/Info : Audio Coding 3
Mode extension : CM (complete main)
Format settings, Endianness : Big
Codec ID: 6
Duração: 4 min 27 s
Modo de taxa de bits: constante
Taxa de bits: 192 kb / s
Canal (ais): 2 canais
Posições do canal: Frente: LR
Taxa de amostragem: 48,0 kHz
Taxa de quadros: 31,250 FPS (1536 spf)
Profundidade de bits: 16 bits
Modo de compressão: com perdas
Tamanho do stream: 6,13 MiB (3%)
Idioma: Inglês [/ CODE]​
[/SPOILER]​
Baixar
*** Conteúdo oculto não pode ser citado. *** [/ QUOTE]