WEBRIP Lady GaGa Presents - The Monster Ball Tour at Madison Square Garden (WEBRIP-1080p)

NCURBAN

Well-Known Member
Administrative
May 25, 2016
3,347
3,634
113
Lady GaGa Presents - The Monster Ball Tour at Madison Square Garden (WEBRIP-1080p)


Setlist:
  1. Dance in the Dark
  2. Glitter and Grease
  3. Just Dance
  4. Beautiful, Dirty, Rich
  5. The Fame
  6. LoveGame
  7. Boys Boys Boys
  8. Money Honey
  9. Telephone
  10. Speechless (acoustic)
  11. Yoü and I (acoustic)
  12. So Happy I Could Die
  13. Monster
  14. Teeth
  15. Alejandro
  16. Poker Face
  17. Paparazzi
  18. Bad Romance
  19. Born This Way

Code:
Format                                   : MPEG-4
Codec ID                                 : M4V
File size                                : 8.89 GiB
Duration                                 : 1h 54mn
Overall bit rate mode                    : Variable
Overall bit rate                         : 11.1 Mbps
Movie name                               : Lady Gaga Presents: The Monster Ball Tour At Madison Square Garden
Performer                                : Lady Gaga
Director                                 : Laurieann Gibson
Genre                                    : Concert Films
ContentType                              : Short Film
Recorded date                            : 2011-01-01
Encoded date                             : UTC 2015-03-20 07:30:07
Tagged date                              : UTC 2015-03-20 07:39:04
Copyright                                : © 2011 Interscope Records
Cover                                    : Yes
Rating                                   : None
AppleStoreCountry                        : United States
AppleStoreCatalogID                      : 485046378
AlbumTitleID                             : 277293880
GenreID                                  : 14
Vendor                                   : Apple:isrc:rutracker-485046378
ContentRating                            : mpaa|NR|000|

Video #1
ID                                       : 1
Format                                   : AVC
Format/Info                              : Advanced Video Codec
Format profile                           : High@L4.1
Format settings, CABAC                   : Yes
Format settings, ReFrames                : 3 frames
Codec ID                                 : avc1
Codec ID/Info                            : Advanced Video Coding
Duration                                 : 1h 54mn
Bit rate                                 : 10.3 Mbps
Width                                    : 1 920 pixels
Height                                   : 1 080 pixels
Display aspect ratio                     : 16:9
Frame rate mode                          : Variable
Frame rate                               : 29.970 fps
Minimum frame rate                       : 29.412 fps
Maximum frame rate                       : 30.303 fps
Color space                              : YUV
Chroma subsampling                       : 4:2:0
Bit depth                                : 8 bits
Scan type                                : Progressive
Bits/(Pixel*Frame)                       : 0.166
Stream size                              : 8.24 GiB (93%)
Writing library                          : x264 core 142 r2479 dd79a61
Encoding settings                        : cabac=1 / ref=4 / deblock=1:0:0 / analyse=0x3:0x113 / me=umh / subme=9 / psy=1 / psy_rd=1.00:0.00 / mixed_ref=0 / me_range=32 / chroma_me=1 / trellis=1 / 8x8dct=1 / cqm=0 / deadzone=21,11 / fast_pskip=1 / chroma_qp_offset=-2 / threads=6 / lookahead_threads=1 / sliced_threads=0 / nr=0 / decimate=1 / interlaced=0 / bluray_compat=0 / constrained_intra=0 / bframes=16 / b_pyramid=1 / b_adapt=2 / b_bias=0 / direct=1 / weightb=1 / open_gop=0 / weightp=1 / keyint=300 / keyint_min=30 / scenecut=40 / intra_refresh=0 / rc_lookahead=10 / rc=crf / mbtree=1 / crf=20.0 / qcomp=0.60 / qpmin=0 / qpmax=69 / qpstep=4 / vbv_maxrate=20000 / vbv_bufsize=20000 / crf_max=0.0 / nal_hrd=none / filler=0 / ip_ratio=1.40 / aq=1:1.00
Encoded date                             : UTC 2015-03-20 07:30:07
Tagged date                              : UTC 2015-03-20 07:38:21
Color range                              : Limited
Color primaries                          : BT.709
Transfer characteristics                 : BT.709
Matrix coefficients                      : BT.709

Video #2
ID                                       : 5
Format                                   : JPEG
Codec ID                                 : jpeg
Duration                                 : 1h 54mn
Bit rate mode                            : Variable
Bit rate                                 : 718 bps
Width                                    : 640 pixels
Height                                   : 360 pixels
Display aspect ratio                     : 16:9
Frame rate mode                          : Variable
Frame rate                               : 0.003 fps
Minimum frame rate                       : 0.002 fps
Maximum frame rate                       : 0.007 fps
Color space                              : YUV
Chroma subsampling                       : 4:2:0
Bit depth                                : 8 bits
Compression mode                         : Lossy
Bits/(Pixel*Frame)                       : 1.039
Stream size                              : 584 KiB (0%)
Encoded date                             : UTC 2015-03-20 07:38:53
Tagged date                              : UTC 2015-03-20 07:38:55

Audio #1
ID                                       : 2
Format                                   : AAC
Format/Info                              : Advanced Audio Codec
Format profile                           : LC
Codec ID                                 : 40
Duration                                 : 1h 54mn
Source duration                          : 1h 54mn
Bit rate mode                            : Variable
Nominal bit rate                         : 164 Kbps
Maximum bit rate                         : 249 Kbps
Channel(s)                               : 2 channels
Channel positions                        : Front: L R
Sampling rate                            : 48.0 KHz
Compression mode                         : Lossy
Source stream size                       : 134 MiB (1%)
Title                                    : Stereo
Language                                 : English
Encoded date                             : UTC 2015-03-20 07:30:07
Tagged date                              : UTC 2015-03-20 07:30:41

Audio #2
ID                                       : 3
Format                                   : AC-3
Format/Info                              : Audio Coding 3
Mode extension                           : CM (complete main)
Format settings, Endianness              : Big
Codec ID                                 : ac-3
Duration                                 : 1h 54mn
Bit rate mode                            : Constant
Bit rate                                 : 640 Kbps
Channel(s)                               : 6 channels
Channel positions                        : Front: L C R, Side: L R, LFE
Sampling rate                            : 48.0 KHz
Bit depth                                : 16 bits
Compression mode                         : Lossy
Stream size                              : 524 MiB (6%)
Title                                    : Surround
Language                                 : English
Encoded date                             : UTC 2015-03-20 07:30:07
Tagged date                              : UTC 2015-03-20 07:31:51

Download
[HIDE-REPLY]MEGA[/HIDE-REPLY]
 

Andre.braz

New Member
Registered
Apr 3, 2018
14
0
1
25
Lady GaGa Presents - The Monster Ball Tour at Madison Square Garden (WEBRIP-1080p)


Setlist:

  1. Dance in the Dark
    Glitter and Grease
    Just Dance
    Beautiful, Dirty, Rich
    The Fame
    LoveGame
    Boys Boys Boys
    Money Honey
    Telephone
    Speechless (acoustic)
    Yoü and I (acoustic)
    So Happy I Could Die
    Monster
    Teeth
    Alejandro
    Poker Face
    Paparazzi
    Bad Romance
    Born This Way

Code:
Format                                   : MPEG-4
Codec ID                                 : M4V
File size                                : 8.89 GiB
Duration                                 : 1h 54mn
Overall bit rate mode                    : Variable
Overall bit rate                         : 11.1 Mbps
Movie name                               : Lady Gaga Presents: The Monster Ball Tour At Madison Square Garden
Performer                                : Lady Gaga
Director                                 : Laurieann Gibson
Genre                                    : Concert Films
ContentType                              : Short Film
Recorded date                            : 2011-01-01
Encoded date                             : UTC 2015-03-20 07:30:07
Tagged date                              : UTC 2015-03-20 07:39:04
Copyright                                : © 2011 Interscope Records
Cover                                    : Yes
Rating                                   : None
AppleStoreCountry                        : United States
AppleStoreCatalogID                      : 485046378
AlbumTitleID                             : 277293880
GenreID                                  : 14
Vendor                                   : Apple:isrc:rutracker-485046378
ContentRating                            : mpaa|NR|000|

Video #1
ID                                       : 1
Format                                   : AVC
Format/Info                              : Advanced Video Codec
Format profile                           : High@L4.1
Format settings, CABAC                   : Yes
Format settings, ReFrames                : 3 frames
Codec ID                                 : avc1
Codec ID/Info                            : Advanced Video Coding
Duration                                 : 1h 54mn
Bit rate                                 : 10.3 Mbps
Width                                    : 1 920 pixels
Height                                   : 1 080 pixels
Display aspect ratio                     : 16:9
Frame rate mode                          : Variable
Frame rate                               : 29.970 fps
Minimum frame rate                       : 29.412 fps
Maximum frame rate                       : 30.303 fps
Color space                              : YUV
Chroma subsampling                       : 4:2:0
Bit depth                                : 8 bits
Scan type                                : Progressive
Bits/(Pixel*Frame)                       : 0.166
Stream size                              : 8.24 GiB (93%)
Writing library                          : x264 core 142 r2479 dd79a61
Encoding settings                        : cabac=1 / ref=4 / deblock=1:0:0 / analyse=0x3:0x113 / me=umh / subme=9 / psy=1 / psy_rd=1.00:0.00 / mixed_ref=0 / me_range=32 / chroma_me=1 / trellis=1 / 8x8dct=1 / cqm=0 / deadzone=21,11 / fast_pskip=1 / chroma_qp_offset=-2 / threads=6 / lookahead_threads=1 / sliced_threads=0 / nr=0 / decimate=1 / interlaced=0 / bluray_compat=0 / constrained_intra=0 / bframes=16 / b_pyramid=1 / b_adapt=2 / b_bias=0 / direct=1 / weightb=1 / open_gop=0 / weightp=1 / keyint=300 / keyint_min=30 / scenecut=40 / intra_refresh=0 / rc_lookahead=10 / rc=crf / mbtree=1 / crf=20.0 / qcomp=0.60 / qpmin=0 / qpmax=69 / qpstep=4 / vbv_maxrate=20000 / vbv_bufsize=20000 / crf_max=0.0 / nal_hrd=none / filler=0 / ip_ratio=1.40 / aq=1:1.00
Encoded date                             : UTC 2015-03-20 07:30:07
Tagged date                              : UTC 2015-03-20 07:38:21
Color range                              : Limited
Color primaries                          : BT.709
Transfer characteristics                 : BT.709
Matrix coefficients                      : BT.709

Video #2
ID                                       : 5
Format                                   : JPEG
Codec ID                                 : jpeg
Duration                                 : 1h 54mn
Bit rate mode                            : Variable
Bit rate                                 : 718 bps
Width                                    : 640 pixels
Height                                   : 360 pixels
Display aspect ratio                     : 16:9
Frame rate mode                          : Variable
Frame rate                               : 0.003 fps
Minimum frame rate                       : 0.002 fps
Maximum frame rate                       : 0.007 fps
Color space                              : YUV
Chroma subsampling                       : 4:2:0
Bit depth                                : 8 bits
Compression mode                         : Lossy
Bits/(Pixel*Frame)                       : 1.039
Stream size                              : 584 KiB (0%)
Encoded date                             : UTC 2015-03-20 07:38:53
Tagged date                              : UTC 2015-03-20 07:38:55

Audio #1
ID                                       : 2
Format                                   : AAC
Format/Info                              : Advanced Audio Codec
Format profile                           : LC
Codec ID                                 : 40
Duration                                 : 1h 54mn
Source duration                          : 1h 54mn
Bit rate mode                            : Variable
Nominal bit rate                         : 164 Kbps
Maximum bit rate                         : 249 Kbps
Channel(s)                               : 2 channels
Channel positions                        : Front: L R
Sampling rate                            : 48.0 KHz
Compression mode                         : Lossy
Source stream size                       : 134 MiB (1%)
Title                                    : Stereo
Language                                 : English
Encoded date                             : UTC 2015-03-20 07:30:07
Tagged date                              : UTC 2015-03-20 07:30:41

Audio #2
ID                                       : 3
Format                                   : AC-3
Format/Info                              : Audio Coding 3
Mode extension                           : CM (complete main)
Format settings, Endianness              : Big
Codec ID                                 : ac-3
Duration                                 : 1h 54mn
Bit rate mode                            : Constant
Bit rate                                 : 640 Kbps
Channel(s)                               : 6 channels
Channel positions                        : Front: L C R, Side: L R, LFE
Sampling rate                            : 48.0 KHz
Bit depth                                : 16 bits
Compression mode                         : Lossy
Stream size                              : 524 MiB (6%)
Title                                    : Surround
Language                                 : English
Encoded date                             : UTC 2015-03-20 07:30:07
Tagged date                              : UTC 2015-03-20 07:31:51

Download
***Hidden content cannot be quoted.***
Monster ball
 

raincount

New Member
Registered
Feb 17, 2019
2
0
1
25
Lady GaGa Presents - The Monster Ball Tour at Madison Square Garden (WEBRIP-1080p)


Setlist:

  1. Dance in the Dark
    Glitter and Grease
    Just Dance
    Beautiful, Dirty, Rich
    The Fame
    LoveGame
    Boys Boys Boys
    Money Honey
    Telephone
    Speechless (acoustic)
    Yoü and I (acoustic)
    So Happy I Could Die
    Monster
    Teeth
    Alejandro
    Poker Face
    Paparazzi
    Bad Romance
    Born This Way

Code:
Format                                   : MPEG-4
Codec ID                                 : M4V
File size                                : 8.89 GiB
Duration                                 : 1h 54mn
Overall bit rate mode                    : Variable
Overall bit rate                         : 11.1 Mbps
Movie name                               : Lady Gaga Presents: The Monster Ball Tour At Madison Square Garden
Performer                                : Lady Gaga
Director                                 : Laurieann Gibson
Genre                                    : Concert Films
ContentType                              : Short Film
Recorded date                            : 2011-01-01
Encoded date                             : UTC 2015-03-20 07:30:07
Tagged date                              : UTC 2015-03-20 07:39:04
Copyright                                : © 2011 Interscope Records
Cover                                    : Yes
Rating                                   : None
AppleStoreCountry                        : United States
AppleStoreCatalogID                      : 485046378
AlbumTitleID                             : 277293880
GenreID                                  : 14
Vendor                                   : Apple:isrc:rutracker-485046378
ContentRating                            : mpaa|NR|000|

Video #1
ID                                       : 1
Format                                   : AVC
Format/Info                              : Advanced Video Codec
Format profile                           : High@L4.1
Format settings, CABAC                   : Yes
Format settings, ReFrames                : 3 frames
Codec ID                                 : avc1
Codec ID/Info                            : Advanced Video Coding
Duration                                 : 1h 54mn
Bit rate                                 : 10.3 Mbps
Width                                    : 1 920 pixels
Height                                   : 1 080 pixels
Display aspect ratio                     : 16:9
Frame rate mode                          : Variable
Frame rate                               : 29.970 fps
Minimum frame rate                       : 29.412 fps
Maximum frame rate                       : 30.303 fps
Color space                              : YUV
Chroma subsampling                       : 4:2:0
Bit depth                                : 8 bits
Scan type                                : Progressive
Bits/(Pixel*Frame)                       : 0.166
Stream size                              : 8.24 GiB (93%)
Writing library                          : x264 core 142 r2479 dd79a61
Encoding settings                        : cabac=1 / ref=4 / deblock=1:0:0 / analyse=0x3:0x113 / me=umh / subme=9 / psy=1 / psy_rd=1.00:0.00 / mixed_ref=0 / me_range=32 / chroma_me=1 / trellis=1 / 8x8dct=1 / cqm=0 / deadzone=21,11 / fast_pskip=1 / chroma_qp_offset=-2 / threads=6 / lookahead_threads=1 / sliced_threads=0 / nr=0 / decimate=1 / interlaced=0 / bluray_compat=0 / constrained_intra=0 / bframes=16 / b_pyramid=1 / b_adapt=2 / b_bias=0 / direct=1 / weightb=1 / open_gop=0 / weightp=1 / keyint=300 / keyint_min=30 / scenecut=40 / intra_refresh=0 / rc_lookahead=10 / rc=crf / mbtree=1 / crf=20.0 / qcomp=0.60 / qpmin=0 / qpmax=69 / qpstep=4 / vbv_maxrate=20000 / vbv_bufsize=20000 / crf_max=0.0 / nal_hrd=none / filler=0 / ip_ratio=1.40 / aq=1:1.00
Encoded date                             : UTC 2015-03-20 07:30:07
Tagged date                              : UTC 2015-03-20 07:38:21
Color range                              : Limited
Color primaries                          : BT.709
Transfer characteristics                 : BT.709
Matrix coefficients                      : BT.709

Video #2
ID                                       : 5
Format                                   : JPEG
Codec ID                                 : jpeg
Duration                                 : 1h 54mn
Bit rate mode                            : Variable
Bit rate                                 : 718 bps
Width                                    : 640 pixels
Height                                   : 360 pixels
Display aspect ratio                     : 16:9
Frame rate mode                          : Variable
Frame rate                               : 0.003 fps
Minimum frame rate                       : 0.002 fps
Maximum frame rate                       : 0.007 fps
Color space                              : YUV
Chroma subsampling                       : 4:2:0
Bit depth                                : 8 bits
Compression mode                         : Lossy
Bits/(Pixel*Frame)                       : 1.039
Stream size                              : 584 KiB (0%)
Encoded date                             : UTC 2015-03-20 07:38:53
Tagged date                              : UTC 2015-03-20 07:38:55

Audio #1
ID                                       : 2
Format                                   : AAC
Format/Info                              : Advanced Audio Codec
Format profile                           : LC
Codec ID                                 : 40
Duration                                 : 1h 54mn
Source duration                          : 1h 54mn
Bit rate mode                            : Variable
Nominal bit rate                         : 164 Kbps
Maximum bit rate                         : 249 Kbps
Channel(s)                               : 2 channels
Channel positions                        : Front: L R
Sampling rate                            : 48.0 KHz
Compression mode                         : Lossy
Source stream size                       : 134 MiB (1%)
Title                                    : Stereo
Language                                 : English
Encoded date                             : UTC 2015-03-20 07:30:07
Tagged date                              : UTC 2015-03-20 07:30:41

Audio #2
ID                                       : 3
Format                                   : AC-3
Format/Info                              : Audio Coding 3
Mode extension                           : CM (complete main)
Format settings, Endianness              : Big
Codec ID                                 : ac-3
Duration                                 : 1h 54mn
Bit rate mode                            : Constant
Bit rate                                 : 640 Kbps
Channel(s)                               : 6 channels
Channel positions                        : Front: L C R, Side: L R, LFE
Sampling rate                            : 48.0 KHz
Bit depth                                : 16 bits
Compression mode                         : Lossy
Stream size                              : 524 MiB (6%)
Title                                    : Surround
Language                                 : English
Encoded date                             : UTC 2015-03-20 07:30:07
Tagged date                              : UTC 2015-03-20 07:31:51

Download
***Hidden content cannot be quoted.***
Ok
 

Manolo Wood

New Member
Registered
Mar 8, 2019
6
1
1
26
thank u

Lady GaGa Presents - The Monster Ball Tour at Madison Square Garden (WEBRIP-1080p)


Setlist:

  1. Dance in the Dark
    Glitter and Grease
    Just Dance
    Beautiful, Dirty, Rich
    The Fame
    LoveGame
    Boys Boys Boys
    Money Honey
    Telephone
    Speechless (acoustic)
    Yoü and I (acoustic)
    So Happy I Could Die
    Monster
    Teeth
    Alejandro
    Poker Face
    Paparazzi
    Bad Romance
    Born This Way

Code:
Format                                   : MPEG-4
Codec ID                                 : M4V
File size                                : 8.89 GiB
Duration                                 : 1h 54mn
Overall bit rate mode                    : Variable
Overall bit rate                         : 11.1 Mbps
Movie name                               : Lady Gaga Presents: The Monster Ball Tour At Madison Square Garden
Performer                                : Lady Gaga
Director                                 : Laurieann Gibson
Genre                                    : Concert Films
ContentType                              : Short Film
Recorded date                            : 2011-01-01
Encoded date                             : UTC 2015-03-20 07:30:07
Tagged date                              : UTC 2015-03-20 07:39:04
Copyright                                : © 2011 Interscope Records
Cover                                    : Yes
Rating                                   : None
AppleStoreCountry                        : United States
AppleStoreCatalogID                      : 485046378
AlbumTitleID                             : 277293880
GenreID                                  : 14
Vendor                                   : Apple:isrc:rutracker-485046378
ContentRating                            : mpaa|NR|000|

Video #1
ID                                       : 1
Format                                   : AVC
Format/Info                              : Advanced Video Codec
Format profile                           : High@L4.1
Format settings, CABAC                   : Yes
Format settings, ReFrames                : 3 frames
Codec ID                                 : avc1
Codec ID/Info                            : Advanced Video Coding
Duration                                 : 1h 54mn
Bit rate                                 : 10.3 Mbps
Width                                    : 1 920 pixels
Height                                   : 1 080 pixels
Display aspect ratio                     : 16:9
Frame rate mode                          : Variable
Frame rate                               : 29.970 fps
Minimum frame rate                       : 29.412 fps
Maximum frame rate                       : 30.303 fps
Color space                              : YUV
Chroma subsampling                       : 4:2:0
Bit depth                                : 8 bits
Scan type                                : Progressive
Bits/(Pixel*Frame)                       : 0.166
Stream size                              : 8.24 GiB (93%)
Writing library                          : x264 core 142 r2479 dd79a61
Encoding settings                        : cabac=1 / ref=4 / deblock=1:0:0 / analyse=0x3:0x113 / me=umh / subme=9 / psy=1 / psy_rd=1.00:0.00 / mixed_ref=0 / me_range=32 / chroma_me=1 / trellis=1 / 8x8dct=1 / cqm=0 / deadzone=21,11 / fast_pskip=1 / chroma_qp_offset=-2 / threads=6 / lookahead_threads=1 / sliced_threads=0 / nr=0 / decimate=1 / interlaced=0 / bluray_compat=0 / constrained_intra=0 / bframes=16 / b_pyramid=1 / b_adapt=2 / b_bias=0 / direct=1 / weightb=1 / open_gop=0 / weightp=1 / keyint=300 / keyint_min=30 / scenecut=40 / intra_refresh=0 / rc_lookahead=10 / rc=crf / mbtree=1 / crf=20.0 / qcomp=0.60 / qpmin=0 / qpmax=69 / qpstep=4 / vbv_maxrate=20000 / vbv_bufsize=20000 / crf_max=0.0 / nal_hrd=none / filler=0 / ip_ratio=1.40 / aq=1:1.00
Encoded date                             : UTC 2015-03-20 07:30:07
Tagged date                              : UTC 2015-03-20 07:38:21
Color range                              : Limited
Color primaries                          : BT.709
Transfer characteristics                 : BT.709
Matrix coefficients                      : BT.709

Video #2
ID                                       : 5
Format                                   : JPEG
Codec ID                                 : jpeg
Duration                                 : 1h 54mn
Bit rate mode                            : Variable
Bit rate                                 : 718 bps
Width                                    : 640 pixels
Height                                   : 360 pixels
Display aspect ratio                     : 16:9
Frame rate mode                          : Variable
Frame rate                               : 0.003 fps
Minimum frame rate                       : 0.002 fps
Maximum frame rate                       : 0.007 fps
Color space                              : YUV
Chroma subsampling                       : 4:2:0
Bit depth                                : 8 bits
Compression mode                         : Lossy
Bits/(Pixel*Frame)                       : 1.039
Stream size                              : 584 KiB (0%)
Encoded date                             : UTC 2015-03-20 07:38:53
Tagged date                              : UTC 2015-03-20 07:38:55

Audio #1
ID                                       : 2
Format                                   : AAC
Format/Info                              : Advanced Audio Codec
Format profile                           : LC
Codec ID                                 : 40
Duration                                 : 1h 54mn
Source duration                          : 1h 54mn
Bit rate mode                            : Variable
Nominal bit rate                         : 164 Kbps
Maximum bit rate                         : 249 Kbps
Channel(s)                               : 2 channels
Channel positions                        : Front: L R
Sampling rate                            : 48.0 KHz
Compression mode                         : Lossy
Source stream size                       : 134 MiB (1%)
Title                                    : Stereo
Language                                 : English
Encoded date                             : UTC 2015-03-20 07:30:07
Tagged date                              : UTC 2015-03-20 07:30:41

Audio #2
ID                                       : 3
Format                                   : AC-3
Format/Info                              : Audio Coding 3
Mode extension                           : CM (complete main)
Format settings, Endianness              : Big
Codec ID                                 : ac-3
Duration                                 : 1h 54mn
Bit rate mode                            : Constant
Bit rate                                 : 640 Kbps
Channel(s)                               : 6 channels
Channel positions                        : Front: L C R, Side: L R, LFE
Sampling rate                            : 48.0 KHz
Bit depth                                : 16 bits
Compression mode                         : Lossy
Stream size                              : 524 MiB (6%)
Title                                    : Surround
Language                                 : English
Encoded date                             : UTC 2015-03-20 07:30:07
Tagged date                              : UTC 2015-03-20 07:31:51

Download
***Hidden content cannot be quoted.***[/QUOTE]
 

thisguy1234

New Member
Registered
Apr 7, 2019
4
0
1
33
Lady GaGa Presents - The Monster Ball Tour at Madison Square Garden (WEBRIP-1080p)


Setlist:

  1. Dance in the Dark
    Glitter and Grease
    Just Dance
    Beautiful, Dirty, Rich
    The Fame
    LoveGame
    Boys Boys Boys
    Money Honey
    Telephone
    Speechless (acoustic)
    Yoü and I (acoustic)
    So Happy I Could Die
    Monster
    Teeth
    Alejandro
    Poker Face
    Paparazzi
    Bad Romance
    Born This Way

Code:
Format                                   : MPEG-4
Codec ID                                 : M4V
File size                                : 8.89 GiB
Duration                                 : 1h 54mn
Overall bit rate mode                    : Variable
Overall bit rate                         : 11.1 Mbps
Movie name                               : Lady Gaga Presents: The Monster Ball Tour At Madison Square Garden
Performer                                : Lady Gaga
Director                                 : Laurieann Gibson
Genre                                    : Concert Films
ContentType                              : Short Film
Recorded date                            : 2011-01-01
Encoded date                             : UTC 2015-03-20 07:30:07
Tagged date                              : UTC 2015-03-20 07:39:04
Copyright                                : © 2011 Interscope Records
Cover                                    : Yes
Rating                                   : None
AppleStoreCountry                        : United States
AppleStoreCatalogID                      : 485046378
AlbumTitleID                             : 277293880
GenreID                                  : 14
Vendor                                   : Apple:isrc:rutracker-485046378
ContentRating                            : mpaa|NR|000|

Video #1
ID                                       : 1
Format                                   : AVC
Format/Info                              : Advanced Video Codec
Format profile                           : High@L4.1
Format settings, CABAC                   : Yes
Format settings, ReFrames                : 3 frames
Codec ID                                 : avc1
Codec ID/Info                            : Advanced Video Coding
Duration                                 : 1h 54mn
Bit rate                                 : 10.3 Mbps
Width                                    : 1 920 pixels
Height                                   : 1 080 pixels
Display aspect ratio                     : 16:9
Frame rate mode                          : Variable
Frame rate                               : 29.970 fps
Minimum frame rate                       : 29.412 fps
Maximum frame rate                       : 30.303 fps
Color space                              : YUV
Chroma subsampling                       : 4:2:0
Bit depth                                : 8 bits
Scan type                                : Progressive
Bits/(Pixel*Frame)                       : 0.166
Stream size                              : 8.24 GiB (93%)
Writing library                          : x264 core 142 r2479 dd79a61
Encoding settings                        : cabac=1 / ref=4 / deblock=1:0:0 / analyse=0x3:0x113 / me=umh / subme=9 / psy=1 / psy_rd=1.00:0.00 / mixed_ref=0 / me_range=32 / chroma_me=1 / trellis=1 / 8x8dct=1 / cqm=0 / deadzone=21,11 / fast_pskip=1 / chroma_qp_offset=-2 / threads=6 / lookahead_threads=1 / sliced_threads=0 / nr=0 / decimate=1 / interlaced=0 / bluray_compat=0 / constrained_intra=0 / bframes=16 / b_pyramid=1 / b_adapt=2 / b_bias=0 / direct=1 / weightb=1 / open_gop=0 / weightp=1 / keyint=300 / keyint_min=30 / scenecut=40 / intra_refresh=0 / rc_lookahead=10 / rc=crf / mbtree=1 / crf=20.0 / qcomp=0.60 / qpmin=0 / qpmax=69 / qpstep=4 / vbv_maxrate=20000 / vbv_bufsize=20000 / crf_max=0.0 / nal_hrd=none / filler=0 / ip_ratio=1.40 / aq=1:1.00
Encoded date                             : UTC 2015-03-20 07:30:07
Tagged date                              : UTC 2015-03-20 07:38:21
Color range                              : Limited
Color primaries                          : BT.709
Transfer characteristics                 : BT.709
Matrix coefficients                      : BT.709

Video #2
ID                                       : 5
Format                                   : JPEG
Codec ID                                 : jpeg
Duration                                 : 1h 54mn
Bit rate mode                            : Variable
Bit rate                                 : 718 bps
Width                                    : 640 pixels
Height                                   : 360 pixels
Display aspect ratio                     : 16:9
Frame rate mode                          : Variable
Frame rate                               : 0.003 fps
Minimum frame rate                       : 0.002 fps
Maximum frame rate                       : 0.007 fps
Color space                              : YUV
Chroma subsampling                       : 4:2:0
Bit depth                                : 8 bits
Compression mode                         : Lossy
Bits/(Pixel*Frame)                       : 1.039
Stream size                              : 584 KiB (0%)
Encoded date                             : UTC 2015-03-20 07:38:53
Tagged date                              : UTC 2015-03-20 07:38:55

Audio #1
ID                                       : 2
Format                                   : AAC
Format/Info                              : Advanced Audio Codec
Format profile                           : LC
Codec ID                                 : 40
Duration                                 : 1h 54mn
Source duration                          : 1h 54mn
Bit rate mode                            : Variable
Nominal bit rate                         : 164 Kbps
Maximum bit rate                         : 249 Kbps
Channel(s)                               : 2 channels
Channel positions                        : Front: L R
Sampling rate                            : 48.0 KHz
Compression mode                         : Lossy
Source stream size                       : 134 MiB (1%)
Title                                    : Stereo
Language                                 : English
Encoded date                             : UTC 2015-03-20 07:30:07
Tagged date                              : UTC 2015-03-20 07:30:41

Audio #2
ID                                       : 3
Format                                   : AC-3
Format/Info                              : Audio Coding 3
Mode extension                           : CM (complete main)
Format settings, Endianness              : Big
Codec ID                                 : ac-3
Duration                                 : 1h 54mn
Bit rate mode                            : Constant
Bit rate                                 : 640 Kbps
Channel(s)                               : 6 channels
Channel positions                        : Front: L C R, Side: L R, LFE
Sampling rate                            : 48.0 KHz
Bit depth                                : 16 bits
Compression mode                         : Lossy
Stream size                              : 524 MiB (6%)
Title                                    : Surround
Language                                 : English
Encoded date                             : UTC 2015-03-20 07:30:07
Tagged date                              : UTC 2015-03-20 07:31:51

Download
***Hidden content cannot be quoted.***
thank you
 

Luis Menezes

New Member
Registered
Apr 30, 2019
8
0
1
24
Lady GaGa Presents - The Monster Ball Tour at Madison Square Garden (WEBRIP-1080p)


Setlist:

  1. Dance in the Dark
    Glitter and Grease
    Just Dance
    Beautiful, Dirty, Rich
    The Fame
    LoveGame
    Boys Boys Boys
    Money Honey
    Telephone
    Speechless (acoustic)
    Yoü and I (acoustic)
    So Happy I Could Die
    Monster
    Teeth
    Alejandro
    Poker Face
    Paparazzi
    Bad Romance
    Born This Way

Code:
Format                                   : MPEG-4
Codec ID                                 : M4V
File size                                : 8.89 GiB
Duration                                 : 1h 54mn
Overall bit rate mode                    : Variable
Overall bit rate                         : 11.1 Mbps
Movie name                               : Lady Gaga Presents: The Monster Ball Tour At Madison Square Garden
Performer                                : Lady Gaga
Director                                 : Laurieann Gibson
Genre                                    : Concert Films
ContentType                              : Short Film
Recorded date                            : 2011-01-01
Encoded date                             : UTC 2015-03-20 07:30:07
Tagged date                              : UTC 2015-03-20 07:39:04
Copyright                                : © 2011 Interscope Records
Cover                                    : Yes
Rating                                   : None
AppleStoreCountry                        : United States
AppleStoreCatalogID                      : 485046378
AlbumTitleID                             : 277293880
GenreID                                  : 14
Vendor                                   : Apple:isrc:rutracker-485046378
ContentRating                            : mpaa|NR|000|

Video #1
ID                                       : 1
Format                                   : AVC
Format/Info                              : Advanced Video Codec
Format profile                           : High@L4.1
Format settings, CABAC                   : Yes
Format settings, ReFrames                : 3 frames
Codec ID                                 : avc1
Codec ID/Info                            : Advanced Video Coding
Duration                                 : 1h 54mn
Bit rate                                 : 10.3 Mbps
Width                                    : 1 920 pixels
Height                                   : 1 080 pixels
Display aspect ratio                     : 16:9
Frame rate mode                          : Variable
Frame rate                               : 29.970 fps
Minimum frame rate                       : 29.412 fps
Maximum frame rate                       : 30.303 fps
Color space                              : YUV
Chroma subsampling                       : 4:2:0
Bit depth                                : 8 bits
Scan type                                : Progressive
Bits/(Pixel*Frame)                       : 0.166
Stream size                              : 8.24 GiB (93%)
Writing library                          : x264 core 142 r2479 dd79a61
Encoding settings                        : cabac=1 / ref=4 / deblock=1:0:0 / analyse=0x3:0x113 / me=umh / subme=9 / psy=1 / psy_rd=1.00:0.00 / mixed_ref=0 / me_range=32 / chroma_me=1 / trellis=1 / 8x8dct=1 / cqm=0 / deadzone=21,11 / fast_pskip=1 / chroma_qp_offset=-2 / threads=6 / lookahead_threads=1 / sliced_threads=0 / nr=0 / decimate=1 / interlaced=0 / bluray_compat=0 / constrained_intra=0 / bframes=16 / b_pyramid=1 / b_adapt=2 / b_bias=0 / direct=1 / weightb=1 / open_gop=0 / weightp=1 / keyint=300 / keyint_min=30 / scenecut=40 / intra_refresh=0 / rc_lookahead=10 / rc=crf / mbtree=1 / crf=20.0 / qcomp=0.60 / qpmin=0 / qpmax=69 / qpstep=4 / vbv_maxrate=20000 / vbv_bufsize=20000 / crf_max=0.0 / nal_hrd=none / filler=0 / ip_ratio=1.40 / aq=1:1.00
Encoded date                             : UTC 2015-03-20 07:30:07
Tagged date                              : UTC 2015-03-20 07:38:21
Color range                              : Limited
Color primaries                          : BT.709
Transfer characteristics                 : BT.709
Matrix coefficients                      : BT.709

Video #2
ID                                       : 5
Format                                   : JPEG
Codec ID                                 : jpeg
Duration                                 : 1h 54mn
Bit rate mode                            : Variable
Bit rate                                 : 718 bps
Width                                    : 640 pixels
Height                                   : 360 pixels
Display aspect ratio                     : 16:9
Frame rate mode                          : Variable
Frame rate                               : 0.003 fps
Minimum frame rate                       : 0.002 fps
Maximum frame rate                       : 0.007 fps
Color space                              : YUV
Chroma subsampling                       : 4:2:0
Bit depth                                : 8 bits
Compression mode                         : Lossy
Bits/(Pixel*Frame)                       : 1.039
Stream size                              : 584 KiB (0%)
Encoded date                             : UTC 2015-03-20 07:38:53
Tagged date                              : UTC 2015-03-20 07:38:55

Audio #1
ID                                       : 2
Format                                   : AAC
Format/Info                              : Advanced Audio Codec
Format profile                           : LC
Codec ID                                 : 40
Duration                                 : 1h 54mn
Source duration                          : 1h 54mn
Bit rate mode                            : Variable
Nominal bit rate                         : 164 Kbps
Maximum bit rate                         : 249 Kbps
Channel(s)                               : 2 channels
Channel positions                        : Front: L R
Sampling rate                            : 48.0 KHz
Compression mode                         : Lossy
Source stream size                       : 134 MiB (1%)
Title                                    : Stereo
Language                                 : English
Encoded date                             : UTC 2015-03-20 07:30:07
Tagged date                              : UTC 2015-03-20 07:30:41

Audio #2
ID                                       : 3
Format                                   : AC-3
Format/Info                              : Audio Coding 3
Mode extension                           : CM (complete main)
Format settings, Endianness              : Big
Codec ID                                 : ac-3
Duration                                 : 1h 54mn
Bit rate mode                            : Constant
Bit rate                                 : 640 Kbps
Channel(s)                               : 6 channels
Channel positions                        : Front: L C R, Side: L R, LFE
Sampling rate                            : 48.0 KHz
Bit depth                                : 16 bits
Compression mode                         : Lossy
Stream size                              : 524 MiB (6%)
Title                                    : Surround
Language                                 : English
Encoded date                             : UTC 2015-03-20 07:30:07
Tagged date                              : UTC 2015-03-20 07:31:51

Download
***Hidden content cannot be quoted.***
thanks
 

jeremi94

New Member
Registered
Jul 3, 2019
2
0
1
26
THANK U <3
Lady GaGa Presents - The Monster Ball Tour at Madison Square Garden (WEBRIP-1080p)


Setlist:

  1. Dance in the Dark
    Glitter and Grease
    Just Dance
    Beautiful, Dirty, Rich
    The Fame
    LoveGame
    Boys Boys Boys
    Money Honey
    Telephone
    Speechless (acoustic)
    Yoü and I (acoustic)
    So Happy I Could Die
    Monster
    Teeth
    Alejandro
    Poker Face
    Paparazzi
    Bad Romance
    Born This Way

Code:
Format                                   : MPEG-4
Codec ID                                 : M4V
File size                                : 8.89 GiB
Duration                                 : 1h 54mn
Overall bit rate mode                    : Variable
Overall bit rate                         : 11.1 Mbps
Movie name                               : Lady Gaga Presents: The Monster Ball Tour At Madison Square Garden
Performer                                : Lady Gaga
Director                                 : Laurieann Gibson
Genre                                    : Concert Films
ContentType                              : Short Film
Recorded date                            : 2011-01-01
Encoded date                             : UTC 2015-03-20 07:30:07
Tagged date                              : UTC 2015-03-20 07:39:04
Copyright                                : © 2011 Interscope Records
Cover                                    : Yes
Rating                                   : None
AppleStoreCountry                        : United States
AppleStoreCatalogID                      : 485046378
AlbumTitleID                             : 277293880
GenreID                                  : 14
Vendor                                   : Apple:isrc:rutracker-485046378
ContentRating                            : mpaa|NR|000|

Video #1
ID                                       : 1
Format                                   : AVC
Format/Info                              : Advanced Video Codec
Format profile                           : High@L4.1
Format settings, CABAC                   : Yes
Format settings, ReFrames                : 3 frames
Codec ID                                 : avc1
Codec ID/Info                            : Advanced Video Coding
Duration                                 : 1h 54mn
Bit rate                                 : 10.3 Mbps
Width                                    : 1 920 pixels
Height                                   : 1 080 pixels
Display aspect ratio                     : 16:9
Frame rate mode                          : Variable
Frame rate                               : 29.970 fps
Minimum frame rate                       : 29.412 fps
Maximum frame rate                       : 30.303 fps
Color space                              : YUV
Chroma subsampling                       : 4:2:0
Bit depth                                : 8 bits
Scan type                                : Progressive
Bits/(Pixel*Frame)                       : 0.166
Stream size                              : 8.24 GiB (93%)
Writing library                          : x264 core 142 r2479 dd79a61
Encoding settings                        : cabac=1 / ref=4 / deblock=1:0:0 / analyse=0x3:0x113 / me=umh / subme=9 / psy=1 / psy_rd=1.00:0.00 / mixed_ref=0 / me_range=32 / chroma_me=1 / trellis=1 / 8x8dct=1 / cqm=0 / deadzone=21,11 / fast_pskip=1 / chroma_qp_offset=-2 / threads=6 / lookahead_threads=1 / sliced_threads=0 / nr=0 / decimate=1 / interlaced=0 / bluray_compat=0 / constrained_intra=0 / bframes=16 / b_pyramid=1 / b_adapt=2 / b_bias=0 / direct=1 / weightb=1 / open_gop=0 / weightp=1 / keyint=300 / keyint_min=30 / scenecut=40 / intra_refresh=0 / rc_lookahead=10 / rc=crf / mbtree=1 / crf=20.0 / qcomp=0.60 / qpmin=0 / qpmax=69 / qpstep=4 / vbv_maxrate=20000 / vbv_bufsize=20000 / crf_max=0.0 / nal_hrd=none / filler=0 / ip_ratio=1.40 / aq=1:1.00
Encoded date                             : UTC 2015-03-20 07:30:07
Tagged date                              : UTC 2015-03-20 07:38:21
Color range                              : Limited
Color primaries                          : BT.709
Transfer characteristics                 : BT.709
Matrix coefficients                      : BT.709

Video #2
ID                                       : 5
Format                                   : JPEG
Codec ID                                 : jpeg
Duration                                 : 1h 54mn
Bit rate mode                            : Variable
Bit rate                                 : 718 bps
Width                                    : 640 pixels
Height                                   : 360 pixels
Display aspect ratio                     : 16:9
Frame rate mode                          : Variable
Frame rate                               : 0.003 fps
Minimum frame rate                       : 0.002 fps
Maximum frame rate                       : 0.007 fps
Color space                              : YUV
Chroma subsampling                       : 4:2:0
Bit depth                                : 8 bits
Compression mode                         : Lossy
Bits/(Pixel*Frame)                       : 1.039
Stream size                              : 584 KiB (0%)
Encoded date                             : UTC 2015-03-20 07:38:53
Tagged date                              : UTC 2015-03-20 07:38:55

Audio #1
ID                                       : 2
Format                                   : AAC
Format/Info                              : Advanced Audio Codec
Format profile                           : LC
Codec ID                                 : 40
Duration                                 : 1h 54mn
Source duration                          : 1h 54mn
Bit rate mode                            : Variable
Nominal bit rate                         : 164 Kbps
Maximum bit rate                         : 249 Kbps
Channel(s)                               : 2 channels
Channel positions                        : Front: L R
Sampling rate                            : 48.0 KHz
Compression mode                         : Lossy
Source stream size                       : 134 MiB (1%)
Title                                    : Stereo
Language                                 : English
Encoded date                             : UTC 2015-03-20 07:30:07
Tagged date                              : UTC 2015-03-20 07:30:41

Audio #2
ID                                       : 3
Format                                   : AC-3
Format/Info                              : Audio Coding 3
Mode extension                           : CM (complete main)
Format settings, Endianness              : Big
Codec ID                                 : ac-3
Duration                                 : 1h 54mn
Bit rate mode                            : Constant
Bit rate                                 : 640 Kbps
Channel(s)                               : 6 channels
Channel positions                        : Front: L C R, Side: L R, LFE
Sampling rate                            : 48.0 KHz
Bit depth                                : 16 bits
Compression mode                         : Lossy
Stream size                              : 524 MiB (6%)
Title                                    : Surround
Language                                 : English
Encoded date                             : UTC 2015-03-20 07:30:07
Tagged date                              : UTC 2015-03-20 07:31:51

Download
***Hidden content cannot be quoted.***[/QUOTE]
 

jcs202

New Member
Registered
Jan 3, 2020
26
1
3
38
Lady GaGa Presents - The Monster Ball Tour at Madison Square Garden (WEBRIP-1080p)


Setlist:

  1. Dance in the Dark
    Glitter and Grease
    Just Dance
    Beautiful, Dirty, Rich
    The Fame
    LoveGame
    Boys Boys Boys
    Money Honey
    Telephone
    Speechless (acoustic)
    Yoü and I (acoustic)
    So Happy I Could Die
    Monster
    Teeth
    Alejandro
    Poker Face
    Paparazzi
    Bad Romance
    Born This Way

Code:
Format                                   : MPEG-4
Codec ID                                 : M4V
File size                                : 8.89 GiB
Duration                                 : 1h 54mn
Overall bit rate mode                    : Variable
Overall bit rate                         : 11.1 Mbps
Movie name                               : Lady Gaga Presents: The Monster Ball Tour At Madison Square Garden
Performer                                : Lady Gaga
Director                                 : Laurieann Gibson
Genre                                    : Concert Films
ContentType                              : Short Film
Recorded date                            : 2011-01-01
Encoded date                             : UTC 2015-03-20 07:30:07
Tagged date                              : UTC 2015-03-20 07:39:04
Copyright                                : © 2011 Interscope Records
Cover                                    : Yes
Rating                                   : None
AppleStoreCountry                        : United States
AppleStoreCatalogID                      : 485046378
AlbumTitleID                             : 277293880
GenreID                                  : 14
Vendor                                   : Apple:isrc:rutracker-485046378
ContentRating                            : mpaa|NR|000|

Video #1
ID                                       : 1
Format                                   : AVC
Format/Info                              : Advanced Video Codec
Format profile                           : High@L4.1
Format settings, CABAC                   : Yes
Format settings, ReFrames                : 3 frames
Codec ID                                 : avc1
Codec ID/Info                            : Advanced Video Coding
Duration                                 : 1h 54mn
Bit rate                                 : 10.3 Mbps
Width                                    : 1 920 pixels
Height                                   : 1 080 pixels
Display aspect ratio                     : 16:9
Frame rate mode                          : Variable
Frame rate                               : 29.970 fps
Minimum frame rate                       : 29.412 fps
Maximum frame rate                       : 30.303 fps
Color space                              : YUV
Chroma subsampling                       : 4:2:0
Bit depth                                : 8 bits
Scan type                                : Progressive
Bits/(Pixel*Frame)                       : 0.166
Stream size                              : 8.24 GiB (93%)
Writing library                          : x264 core 142 r2479 dd79a61
Encoding settings                        : cabac=1 / ref=4 / deblock=1:0:0 / analyse=0x3:0x113 / me=umh / subme=9 / psy=1 / psy_rd=1.00:0.00 / mixed_ref=0 / me_range=32 / chroma_me=1 / trellis=1 / 8x8dct=1 / cqm=0 / deadzone=21,11 / fast_pskip=1 / chroma_qp_offset=-2 / threads=6 / lookahead_threads=1 / sliced_threads=0 / nr=0 / decimate=1 / interlaced=0 / bluray_compat=0 / constrained_intra=0 / bframes=16 / b_pyramid=1 / b_adapt=2 / b_bias=0 / direct=1 / weightb=1 / open_gop=0 / weightp=1 / keyint=300 / keyint_min=30 / scenecut=40 / intra_refresh=0 / rc_lookahead=10 / rc=crf / mbtree=1 / crf=20.0 / qcomp=0.60 / qpmin=0 / qpmax=69 / qpstep=4 / vbv_maxrate=20000 / vbv_bufsize=20000 / crf_max=0.0 / nal_hrd=none / filler=0 / ip_ratio=1.40 / aq=1:1.00
Encoded date                             : UTC 2015-03-20 07:30:07
Tagged date                              : UTC 2015-03-20 07:38:21
Color range                              : Limited
Color primaries                          : BT.709
Transfer characteristics                 : BT.709
Matrix coefficients                      : BT.709

Video #2
ID                                       : 5
Format                                   : JPEG
Codec ID                                 : jpeg
Duration                                 : 1h 54mn
Bit rate mode                            : Variable
Bit rate                                 : 718 bps
Width                                    : 640 pixels
Height                                   : 360 pixels
Display aspect ratio                     : 16:9
Frame rate mode                          : Variable
Frame rate                               : 0.003 fps
Minimum frame rate                       : 0.002 fps
Maximum frame rate                       : 0.007 fps
Color space                              : YUV
Chroma subsampling                       : 4:2:0
Bit depth                                : 8 bits
Compression mode                         : Lossy
Bits/(Pixel*Frame)                       : 1.039
Stream size                              : 584 KiB (0%)
Encoded date                             : UTC 2015-03-20 07:38:53
Tagged date                              : UTC 2015-03-20 07:38:55

Audio #1
ID                                       : 2
Format                                   : AAC
Format/Info                              : Advanced Audio Codec
Format profile                           : LC
Codec ID                                 : 40
Duration                                 : 1h 54mn
Source duration                          : 1h 54mn
Bit rate mode                            : Variable
Nominal bit rate                         : 164 Kbps
Maximum bit rate                         : 249 Kbps
Channel(s)                               : 2 channels
Channel positions                        : Front: L R
Sampling rate                            : 48.0 KHz
Compression mode                         : Lossy
Source stream size                       : 134 MiB (1%)
Title                                    : Stereo
Language                                 : English
Encoded date                             : UTC 2015-03-20 07:30:07
Tagged date                              : UTC 2015-03-20 07:30:41

Audio #2
ID                                       : 3
Format                                   : AC-3
Format/Info                              : Audio Coding 3
Mode extension                           : CM (complete main)
Format settings, Endianness              : Big
Codec ID                                 : ac-3
Duration                                 : 1h 54mn
Bit rate mode                            : Constant
Bit rate                                 : 640 Kbps
Channel(s)                               : 6 channels
Channel positions                        : Front: L C R, Side: L R, LFE
Sampling rate                            : 48.0 KHz
Bit depth                                : 16 bits
Compression mode                         : Lossy
Stream size                              : 524 MiB (6%)
Title                                    : Surround
Language                                 : English
Encoded date                             : UTC 2015-03-20 07:30:07
Tagged date                              : UTC 2015-03-20 07:31:51

Download
***Hidden content cannot be quoted.***
 

HerbivoreXXI

Member
Registered
Feb 16, 2020
46
3
8
23
Lady GaGa Presents - The Monster Ball Tour at Madison Square Garden (WEBRIP-1080p)


Setlist:

  1. Dance in the Dark
    Glitter and Grease
    Just Dance
    Beautiful, Dirty, Rich
    The Fame
    LoveGame
    Boys Boys Boys
    Money Honey
    Telephone
    Speechless (acoustic)
    Yoü and I (acoustic)
    So Happy I Could Die
    Monster
    Teeth
    Alejandro
    Poker Face
    Paparazzi
    Bad Romance
    Born This Way

Code:
Format                                   : MPEG-4
Codec ID                                 : M4V
File size                                : 8.89 GiB
Duration                                 : 1h 54mn
Overall bit rate mode                    : Variable
Overall bit rate                         : 11.1 Mbps
Movie name                               : Lady Gaga Presents: The Monster Ball Tour At Madison Square Garden
Performer                                : Lady Gaga
Director                                 : Laurieann Gibson
Genre                                    : Concert Films
ContentType                              : Short Film
Recorded date                            : 2011-01-01
Encoded date                             : UTC 2015-03-20 07:30:07
Tagged date                              : UTC 2015-03-20 07:39:04
Copyright                                : © 2011 Interscope Records
Cover                                    : Yes
Rating                                   : None
AppleStoreCountry                        : United States
AppleStoreCatalogID                      : 485046378
AlbumTitleID                             : 277293880
GenreID                                  : 14
Vendor                                   : Apple:isrc:rutracker-485046378
ContentRating                            : mpaa|NR|000|

Video #1
ID                                       : 1
Format                                   : AVC
Format/Info                              : Advanced Video Codec
Format profile                           : High@L4.1
Format settings, CABAC                   : Yes
Format settings, ReFrames                : 3 frames
Codec ID                                 : avc1
Codec ID/Info                            : Advanced Video Coding
Duration                                 : 1h 54mn
Bit rate                                 : 10.3 Mbps
Width                                    : 1 920 pixels
Height                                   : 1 080 pixels
Display aspect ratio                     : 16:9
Frame rate mode                          : Variable
Frame rate                               : 29.970 fps
Minimum frame rate                       : 29.412 fps
Maximum frame rate                       : 30.303 fps
Color space                              : YUV
Chroma subsampling                       : 4:2:0
Bit depth                                : 8 bits
Scan type                                : Progressive
Bits/(Pixel*Frame)                       : 0.166
Stream size                              : 8.24 GiB (93%)
Writing library                          : x264 core 142 r2479 dd79a61
Encoding settings                        : cabac=1 / ref=4 / deblock=1:0:0 / analyse=0x3:0x113 / me=umh / subme=9 / psy=1 / psy_rd=1.00:0.00 / mixed_ref=0 / me_range=32 / chroma_me=1 / trellis=1 / 8x8dct=1 / cqm=0 / deadzone=21,11 / fast_pskip=1 / chroma_qp_offset=-2 / threads=6 / lookahead_threads=1 / sliced_threads=0 / nr=0 / decimate=1 / interlaced=0 / bluray_compat=0 / constrained_intra=0 / bframes=16 / b_pyramid=1 / b_adapt=2 / b_bias=0 / direct=1 / weightb=1 / open_gop=0 / weightp=1 / keyint=300 / keyint_min=30 / scenecut=40 / intra_refresh=0 / rc_lookahead=10 / rc=crf / mbtree=1 / crf=20.0 / qcomp=0.60 / qpmin=0 / qpmax=69 / qpstep=4 / vbv_maxrate=20000 / vbv_bufsize=20000 / crf_max=0.0 / nal_hrd=none / filler=0 / ip_ratio=1.40 / aq=1:1.00
Encoded date                             : UTC 2015-03-20 07:30:07
Tagged date                              : UTC 2015-03-20 07:38:21
Color range                              : Limited
Color primaries                          : BT.709
Transfer characteristics                 : BT.709
Matrix coefficients                      : BT.709

Video #2
ID                                       : 5
Format                                   : JPEG
Codec ID                                 : jpeg
Duration                                 : 1h 54mn
Bit rate mode                            : Variable
Bit rate                                 : 718 bps
Width                                    : 640 pixels
Height                                   : 360 pixels
Display aspect ratio                     : 16:9
Frame rate mode                          : Variable
Frame rate                               : 0.003 fps
Minimum frame rate                       : 0.002 fps
Maximum frame rate                       : 0.007 fps
Color space                              : YUV
Chroma subsampling                       : 4:2:0
Bit depth                                : 8 bits
Compression mode                         : Lossy
Bits/(Pixel*Frame)                       : 1.039
Stream size                              : 584 KiB (0%)
Encoded date                             : UTC 2015-03-20 07:38:53
Tagged date                              : UTC 2015-03-20 07:38:55

Audio #1
ID                                       : 2
Format                                   : AAC
Format/Info                              : Advanced Audio Codec
Format profile                           : LC
Codec ID                                 : 40
Duration                                 : 1h 54mn
Source duration                          : 1h 54mn
Bit rate mode                            : Variable
Nominal bit rate                         : 164 Kbps
Maximum bit rate                         : 249 Kbps
Channel(s)                               : 2 channels
Channel positions                        : Front: L R
Sampling rate                            : 48.0 KHz
Compression mode                         : Lossy
Source stream size                       : 134 MiB (1%)
Title                                    : Stereo
Language                                 : English
Encoded date                             : UTC 2015-03-20 07:30:07
Tagged date                              : UTC 2015-03-20 07:30:41

Audio #2
ID                                       : 3
Format                                   : AC-3
Format/Info                              : Audio Coding 3
Mode extension                           : CM (complete main)
Format settings, Endianness              : Big
Codec ID                                 : ac-3
Duration                                 : 1h 54mn
Bit rate mode                            : Constant
Bit rate                                 : 640 Kbps
Channel(s)                               : 6 channels
Channel positions                        : Front: L C R, Side: L R, LFE
Sampling rate                            : 48.0 KHz
Bit depth                                : 16 bits
Compression mode                         : Lossy
Stream size                              : 524 MiB (6%)
Title                                    : Surround
Language                                 : English
Encoded date                             : UTC 2015-03-20 07:30:07
Tagged date                              : UTC 2015-03-20 07:31:51

Download
***Hidden content cannot be quoted.***
Thank you so much
 

suhaimi

New Member
Registered
Mar 25, 2020
8
0
1
23
Lady GaGa Presents - The Monster Ball Tour at Madison Square Garden (WEBRIP-1080p)


Setlist:

  1. Dance in the Dark
    Glitter and Grease
    Just Dance
    Beautiful, Dirty, Rich
    The Fame
    LoveGame
    Boys Boys Boys
    Money Honey
    Telephone
    Speechless (acoustic)
    Yoü and I (acoustic)
    So Happy I Could Die
    Monster
    Teeth
    Alejandro
    Poker Face
    Paparazzi
    Bad Romance
    Born This Way

Code:
Format                                   : MPEG-4
Codec ID                                 : M4V
File size                                : 8.89 GiB
Duration                                 : 1h 54mn
Overall bit rate mode                    : Variable
Overall bit rate                         : 11.1 Mbps
Movie name                               : Lady Gaga Presents: The Monster Ball Tour At Madison Square Garden
Performer                                : Lady Gaga
Director                                 : Laurieann Gibson
Genre                                    : Concert Films
ContentType                              : Short Film
Recorded date                            : 2011-01-01
Encoded date                             : UTC 2015-03-20 07:30:07
Tagged date                              : UTC 2015-03-20 07:39:04
Copyright                                : © 2011 Interscope Records
Cover                                    : Yes
Rating                                   : None
AppleStoreCountry                        : United States
AppleStoreCatalogID                      : 485046378
AlbumTitleID                             : 277293880
GenreID                                  : 14
Vendor                                   : Apple:isrc:rutracker-485046378
ContentRating                            : mpaa|NR|000|

Video #1
ID                                       : 1
Format                                   : AVC
Format/Info                              : Advanced Video Codec
Format profile                           : High@L4.1
Format settings, CABAC                   : Yes
Format settings, ReFrames                : 3 frames
Codec ID                                 : avc1
Codec ID/Info                            : Advanced Video Coding
Duration                                 : 1h 54mn
Bit rate                                 : 10.3 Mbps
Width                                    : 1 920 pixels
Height                                   : 1 080 pixels
Display aspect ratio                     : 16:9
Frame rate mode                          : Variable
Frame rate                               : 29.970 fps
Minimum frame rate                       : 29.412 fps
Maximum frame rate                       : 30.303 fps
Color space                              : YUV
Chroma subsampling                       : 4:2:0
Bit depth                                : 8 bits
Scan type                                : Progressive
Bits/(Pixel*Frame)                       : 0.166
Stream size                              : 8.24 GiB (93%)
Writing library                          : x264 core 142 r2479 dd79a61
Encoding settings                        : cabac=1 / ref=4 / deblock=1:0:0 / analyse=0x3:0x113 / me=umh / subme=9 / psy=1 / psy_rd=1.00:0.00 / mixed_ref=0 / me_range=32 / chroma_me=1 / trellis=1 / 8x8dct=1 / cqm=0 / deadzone=21,11 / fast_pskip=1 / chroma_qp_offset=-2 / threads=6 / lookahead_threads=1 / sliced_threads=0 / nr=0 / decimate=1 / interlaced=0 / bluray_compat=0 / constrained_intra=0 / bframes=16 / b_pyramid=1 / b_adapt=2 / b_bias=0 / direct=1 / weightb=1 / open_gop=0 / weightp=1 / keyint=300 / keyint_min=30 / scenecut=40 / intra_refresh=0 / rc_lookahead=10 / rc=crf / mbtree=1 / crf=20.0 / qcomp=0.60 / qpmin=0 / qpmax=69 / qpstep=4 / vbv_maxrate=20000 / vbv_bufsize=20000 / crf_max=0.0 / nal_hrd=none / filler=0 / ip_ratio=1.40 / aq=1:1.00
Encoded date                             : UTC 2015-03-20 07:30:07
Tagged date                              : UTC 2015-03-20 07:38:21
Color range                              : Limited
Color primaries                          : BT.709
Transfer characteristics                 : BT.709
Matrix coefficients                      : BT.709

Video #2
ID                                       : 5
Format                                   : JPEG
Codec ID                                 : jpeg
Duration                                 : 1h 54mn
Bit rate mode                            : Variable
Bit rate                                 : 718 bps
Width                                    : 640 pixels
Height                                   : 360 pixels
Display aspect ratio                     : 16:9
Frame rate mode                          : Variable
Frame rate                               : 0.003 fps
Minimum frame rate                       : 0.002 fps
Maximum frame rate                       : 0.007 fps
Color space                              : YUV
Chroma subsampling                       : 4:2:0
Bit depth                                : 8 bits
Compression mode                         : Lossy
Bits/(Pixel*Frame)                       : 1.039
Stream size                              : 584 KiB (0%)
Encoded date                             : UTC 2015-03-20 07:38:53
Tagged date                              : UTC 2015-03-20 07:38:55

Audio #1
ID                                       : 2
Format                                   : AAC
Format/Info                              : Advanced Audio Codec
Format profile                           : LC
Codec ID                                 : 40
Duration                                 : 1h 54mn
Source duration                          : 1h 54mn
Bit rate mode                            : Variable
Nominal bit rate                         : 164 Kbps
Maximum bit rate                         : 249 Kbps
Channel(s)                               : 2 channels
Channel positions                        : Front: L R
Sampling rate                            : 48.0 KHz
Compression mode                         : Lossy
Source stream size                       : 134 MiB (1%)
Title                                    : Stereo
Language                                 : English
Encoded date                             : UTC 2015-03-20 07:30:07
Tagged date                              : UTC 2015-03-20 07:30:41

Audio #2
ID                                       : 3
Format                                   : AC-3
Format/Info                              : Audio Coding 3
Mode extension                           : CM (complete main)
Format settings, Endianness              : Big
Codec ID                                 : ac-3
Duration                                 : 1h 54mn
Bit rate mode                            : Constant
Bit rate                                 : 640 Kbps
Channel(s)                               : 6 channels
Channel positions                        : Front: L C R, Side: L R, LFE
Sampling rate                            : 48.0 KHz
Bit depth                                : 16 bits
Compression mode                         : Lossy
Stream size                              : 524 MiB (6%)
Title                                    : Surround
Language                                 : English
Encoded date                             : UTC 2015-03-20 07:30:07
Tagged date                              : UTC 2015-03-20 07:31:51

Download
***Hidden content cannot be quoted.***
thanks
 

aleajndro

New Member
Registered
Apr 11, 2020
1
0
1
21
Lady GaGa Presents - The Monster Ball Tour at Madison Square Garden (WEBRIP-1080p)


Setlist:

  1. Dance in the Dark
    Glitter and Grease
    Just Dance
    Beautiful, Dirty, Rich
    The Fame
    LoveGame
    Boys Boys Boys
    Money Honey
    Telephone
    Speechless (acoustic)
    Yoü and I (acoustic)
    So Happy I Could Die
    Monster
    Teeth
    Alejandro
    Poker Face
    Paparazzi
    Bad Romance
    Born This Way

Code:
Format                                   : MPEG-4
Codec ID                                 : M4V
File size                                : 8.89 GiB
Duration                                 : 1h 54mn
Overall bit rate mode                    : Variable
Overall bit rate                         : 11.1 Mbps
Movie name                               : Lady Gaga Presents: The Monster Ball Tour At Madison Square Garden
Performer                                : Lady Gaga
Director                                 : Laurieann Gibson
Genre                                    : Concert Films
ContentType                              : Short Film
Recorded date                            : 2011-01-01
Encoded date                             : UTC 2015-03-20 07:30:07
Tagged date                              : UTC 2015-03-20 07:39:04
Copyright                                : © 2011 Interscope Records
Cover                                    : Yes
Rating                                   : None
AppleStoreCountry                        : United States
AppleStoreCatalogID                      : 485046378
AlbumTitleID                             : 277293880
GenreID                                  : 14
Vendor                                   : Apple:isrc:rutracker-485046378
ContentRating                            : mpaa|NR|000|

Video #1
ID                                       : 1
Format                                   : AVC
Format/Info                              : Advanced Video Codec
Format profile                           : High@L4.1
Format settings, CABAC                   : Yes
Format settings, ReFrames                : 3 frames
Codec ID                                 : avc1
Codec ID/Info                            : Advanced Video Coding
Duration                                 : 1h 54mn
Bit rate                                 : 10.3 Mbps
Width                                    : 1 920 pixels
Height                                   : 1 080 pixels
Display aspect ratio                     : 16:9
Frame rate mode                          : Variable
Frame rate                               : 29.970 fps
Minimum frame rate                       : 29.412 fps
Maximum frame rate                       : 30.303 fps
Color space                              : YUV
Chroma subsampling                       : 4:2:0
Bit depth                                : 8 bits
Scan type                                : Progressive
Bits/(Pixel*Frame)                       : 0.166
Stream size                              : 8.24 GiB (93%)
Writing library                          : x264 core 142 r2479 dd79a61
Encoding settings                        : cabac=1 / ref=4 / deblock=1:0:0 / analyse=0x3:0x113 / me=umh / subme=9 / psy=1 / psy_rd=1.00:0.00 / mixed_ref=0 / me_range=32 / chroma_me=1 / trellis=1 / 8x8dct=1 / cqm=0 / deadzone=21,11 / fast_pskip=1 / chroma_qp_offset=-2 / threads=6 / lookahead_threads=1 / sliced_threads=0 / nr=0 / decimate=1 / interlaced=0 / bluray_compat=0 / constrained_intra=0 / bframes=16 / b_pyramid=1 / b_adapt=2 / b_bias=0 / direct=1 / weightb=1 / open_gop=0 / weightp=1 / keyint=300 / keyint_min=30 / scenecut=40 / intra_refresh=0 / rc_lookahead=10 / rc=crf / mbtree=1 / crf=20.0 / qcomp=0.60 / qpmin=0 / qpmax=69 / qpstep=4 / vbv_maxrate=20000 / vbv_bufsize=20000 / crf_max=0.0 / nal_hrd=none / filler=0 / ip_ratio=1.40 / aq=1:1.00
Encoded date                             : UTC 2015-03-20 07:30:07
Tagged date                              : UTC 2015-03-20 07:38:21
Color range                              : Limited
Color primaries                          : BT.709
Transfer characteristics                 : BT.709
Matrix coefficients                      : BT.709

Video #2
ID                                       : 5
Format                                   : JPEG
Codec ID                                 : jpeg
Duration                                 : 1h 54mn
Bit rate mode                            : Variable
Bit rate                                 : 718 bps
Width                                    : 640 pixels
Height                                   : 360 pixels
Display aspect ratio                     : 16:9
Frame rate mode                          : Variable
Frame rate                               : 0.003 fps
Minimum frame rate                       : 0.002 fps
Maximum frame rate                       : 0.007 fps
Color space                              : YUV
Chroma subsampling                       : 4:2:0
Bit depth                                : 8 bits
Compression mode                         : Lossy
Bits/(Pixel*Frame)                       : 1.039
Stream size                              : 584 KiB (0%)
Encoded date                             : UTC 2015-03-20 07:38:53
Tagged date                              : UTC 2015-03-20 07:38:55

Audio #1
ID                                       : 2
Format                                   : AAC
Format/Info                              : Advanced Audio Codec
Format profile                           : LC
Codec ID                                 : 40
Duration                                 : 1h 54mn
Source duration                          : 1h 54mn
Bit rate mode                            : Variable
Nominal bit rate                         : 164 Kbps
Maximum bit rate                         : 249 Kbps
Channel(s)                               : 2 channels
Channel positions                        : Front: L R
Sampling rate                            : 48.0 KHz
Compression mode                         : Lossy
Source stream size                       : 134 MiB (1%)
Title                                    : Stereo
Language                                 : English
Encoded date                             : UTC 2015-03-20 07:30:07
Tagged date                              : UTC 2015-03-20 07:30:41

Audio #2
ID                                       : 3
Format                                   : AC-3
Format/Info                              : Audio Coding 3
Mode extension                           : CM (complete main)
Format settings, Endianness              : Big
Codec ID                                 : ac-3
Duration                                 : 1h 54mn
Bit rate mode                            : Constant
Bit rate                                 : 640 Kbps
Channel(s)                               : 6 channels
Channel positions                        : Front: L C R, Side: L R, LFE
Sampling rate                            : 48.0 KHz
Bit depth                                : 16 bits
Compression mode                         : Lossy
Stream size                              : 524 MiB (6%)
Title                                    : Surround
Language                                 : English
Encoded date                             : UTC 2015-03-20 07:30:07
Tagged date                              : UTC 2015-03-20 07:31:51

Download
***Hidden content cannot be quoted.***