HDTV Lady Gaga - Telephone (Friday Night with Jonathan Ross 2010) [HDTV-1080p]

NCURBAN

Well-Known Member
Administrative
May 25, 2016
3,347
3,859
113
Lady Gaga - Telephone (Friday Night with Jonathan Ross 2010) [HDTV-1080p]


Genres: Pop
At: Friday Night with Jonathan Ross
Date: 05 March, 2010
Code:
Format                                   : MPEG-TS
File size                                : 285 MiB
Duration                                 : 3 min 53 s
Overall bit rate mode                    : Variable
Overall bit rate                         : 10.2 Mb/s

Video
ID                                       : 5500 (0x157C)
Menu ID                                  : 6940 (0x1B1C)
Format                                   : AVC
Format/Info                              : Advanced Video Codec
Format profile                           : High@L4
Format settings, CABAC                   : Yes
Format settings, ReFrames                : 4 frames
Format settings, GOP                     : M=3, N=12
Codec ID                                 : 27
Duration                                 : 3 min 53 s
Bit rate                                 : 9 281 kb/s
Width                                    : 1 440 pixels
Height                                   : 1 080 pixels
Display aspect ratio                     : 16:9
Frame rate                               : 25.000 FPS
Color space                              : YUV
Chroma subsampling                       : 4:2:0
Bit depth                                : 8 bits
Scan type                                : Interlaced
Scan type, store method                  : Separated fields
Scan order                               : Top Field First
Bits/(Pixel*Frame)                       : 0.239
Stream size                              : 259 MiB (91%)
Color range                              : Limited
Color primaries                          : BT.709
Transfer characteristics                 : BT.709
Matrix coefficients                      : BT.709

Audio #1
ID                                       : 5501 (0x157D)
Menu ID                                  : 6940 (0x1B1C)
Format                                   : AC-3
Format/Info                              : Audio Coding 3
Mode extension                           : CM (complete main)
Format settings, Endianness              : Big
Codec ID                                 : 6
Duration                                 : 3 min 53 s
Bit rate mode                            : Constant
Bit rate                                 : 192 kb/s
Channel(s)                               : 2 channels
Channel positions                        : Front: L R
Sampling rate                            : 48.0 kHz
Frame rate                               : 31.250 FPS (1536 spf)
Bit depth                                : 16 bits
Compression mode                         : Lossy
Delay relative to video                  : -720 ms
Stream size                              : 5.35 MiB (2%)
Language                                 : English
Download
You must reply before you can see the hidden data contained here.
 

Andre.braz

New Member
Registered
Apr 3, 2018
14
0
1
25
[QUOTE = "NCURBAN, postagem: 586, membro: 1"]
Lady Gaga - Telefone (sexta à noite com Jonathan Ross 2010) [HDTV-1080p]




[SPOILER = "MediaInfo"]​
[CÓDIGO] Formato: MPEG-TS
Tamanho do arquivo: 285 MiB
Duração: 3 min 53 s
Modo de taxa de bits global: Variável
Taxa de bits total: 10,2 Mb / s

Vídeo
ID: 5500 (0x157C)
ID do Menu: 6940 (0x1B1C)
Formato: AVC
Formato / Info: Codec de Vídeo Avançado
Perfil de formato: Alto @ L4
Configurações de formato, CABAC: Sim
Configurações de formato, Reformes: 4 quadros
Configurações de formato, GOP: M = 3, N = 12
Codec ID: 27
Duração: 3 min 53 s
Taxa de bits: 9 281 kb / s
Largura: 1 440 pixels
Altura: 1 080 pixels
Proporção da tela: 16: 9
Taxa de quadros: 25.000 FPS
Espaço de cor: YUV
Subamostragem de croma: 4: 2: 0
Profundidade de bits: 8 bits
Tipo de digitalização: entrelaçado
Tipo de verificação, método de armazenamento: campos separados
Ordem de digitalização: campo superior primeiro
Bits / (Pixel * Frame): 0,239
Tamanho do stream: 259 MiB (91%)
Gama de cores: Limited
Primários coloridos: BT.709
Características de transferência: BT.709
Coeficientes de matriz: BT.709

Áudio # 1
ID: 5501 (0x157D)
ID do Menu: 6940 (0x1B1C)
Formato: AC-3
Formato / Info: codificação de áudio 3
Extensão de modo: CM (completo principal)
Configurações de formato, Endianness: Big
Codec ID: 6
Duração: 3 min 53 s
Modo de taxa de bits: constante
Taxa de bits: 192 kb / s
Canal (ais): 2 canais
Posições do canal: Frente: LR
Taxa de amostragem: 48,0 kHz
Taxa de quadros: 31,250 FPS (1536 spf)
Profundidade de bits: 16 bits
Modo de compressão: com perdas
Atraso em relação ao vídeo: -720 ms
Tamanho do stream: 5,35 MiB (2%)
Idioma: Inglês [/ CODE]​
[/SPOILER]​
Baixar
*** Conteúdo oculto não pode ser citado. *** [/ QUOTE]
Pare de teltelephonin' me
 

jcs202

New Member
Registered
Jan 3, 2020
26
1
3
38
Lady Gaga - Telephone (Friday Night with Jonathan Ross 2010) [HDTV-1080p]




Code:
Format                                   : MPEG-TS
File size                                : 285 MiB
Duration                                 : 3 min 53 s
Overall bit rate mode                    : Variable
Overall bit rate                         : 10.2 Mb/s

Video
ID                                       : 5500 (0x157C)
Menu ID                                  : 6940 (0x1B1C)
Format                                   : AVC
Format/Info                              : Advanced Video Codec
Format profile                           : High@L4
Format settings, CABAC                   : Yes
Format settings, ReFrames                : 4 frames
Format settings, GOP                     : M=3, N=12
Codec ID                                 : 27
Duration                                 : 3 min 53 s
Bit rate                                 : 9 281 kb/s
Width                                    : 1 440 pixels
Height                                   : 1 080 pixels
Display aspect ratio                     : 16:9
Frame rate                               : 25.000 FPS
Color space                              : YUV
Chroma subsampling                       : 4:2:0
Bit depth                                : 8 bits
Scan type                                : Interlaced
Scan type, store method                  : Separated fields
Scan order                               : Top Field First
Bits/(Pixel*Frame)                       : 0.239
Stream size                              : 259 MiB (91%)
Color range                              : Limited
Color primaries                          : BT.709
Transfer characteristics                 : BT.709
Matrix coefficients                      : BT.709

Audio #1
ID                                       : 5501 (0x157D)
Menu ID                                  : 6940 (0x1B1C)
Format                                   : AC-3
Format/Info                              : Audio Coding 3
Mode extension                           : CM (complete main)
Format settings, Endianness              : Big
Codec ID                                 : 6
Duration                                 : 3 min 53 s
Bit rate mode                            : Constant
Bit rate                                 : 192 kb/s
Channel(s)                               : 2 channels
Channel positions                        : Front: L R
Sampling rate                            : 48.0 kHz
Frame rate                               : 31.250 FPS (1536 spf)
Bit depth                                : 16 bits
Compression mode                         : Lossy
Delay relative to video                  : -720 ms
Stream size                              : 5.35 MiB (2%)
Language                                 : English
Download
***Hidden content cannot be quoted.***