Master Lady Gaga - You And I (Master-1080p)

NCURBAN

Well-Known Member
Administrative
May 25, 2016
3,347
3,853
113
Lady Gaga - You And I (Master-1080p)



Genres: Pop Rock
Released: Aug 16, 2011​

Code:
Format                                   : MPEG-4
Format profile                           : QuickTime
Format settings                          : Compressed header
Codec ID                                 : qt  
File size                                : 437 MiB
Duration                                 : 6mn 11s
Overall bit rate                         : 9 887 Kbps
Encoded date                             : UTC 2013-09-30 23:42:34
Tagged date                              : UTC 2013-09-30 23:42:39
Writing library                          : Apple QuickTime
Media/UUID                               : 32273101-D371-4FF8-B690-3F3071E3ECD9
Media/History/UUID                       : 785E9B37-8F28-4BE1-9925-A6A6F6F607F1

Video
ID                                       : 1
Format                                   : AVC
Format/Info                              : Advanced Video Codec
Format profile                           : Main@L4
Format settings, CABAC                   : No
Format settings, ReFrames                : 2 frames
Format settings, GOP                     : M=2, N=24
Codec ID                                 : avc1
Codec ID/Info                            : Advanced Video Coding
Duration                                 : 6mn 11s
Bit rate                                 : 8 350 Kbps
Width                                    : 1 920 pixels
Clean aperture width                     : 1 888 pixels
Height                                   : 1 080 pixels
Clean aperture height                    : 1 062 pixels
Display aspect ratio                     : 16:9
Frame rate mode                          : Constant
Frame rate                               : 23.976 fps
Color space                              : YUV
Chroma subsampling                       : 4:2:0
Bit depth                                : 8 bits
Scan type                                : Progressive
Bits/(Pixel*Frame)                       : 0.168
Stream size                              : 369 MiB (84%)
Language                                 : English
Encoded date                             : UTC 2013-09-30 23:42:34
Tagged date                              : UTC 2013-09-30 23:42:39
Color range                              : Limited
Color primaries                          : BT.709
Transfer characteristics                 : BT.709
Matrix coefficients                      : BT.709

Audio
ID                                       : 2
Format                                   : PCM
Format settings, Endianness              : Big
Format settings, Sign                    : Signed
Codec ID                                 : twos
Duration                                 : 6mn 11s
Bit rate mode                            : Constant
Bit rate                                 : 1 536 Kbps
Channel(s)                               : 2 channels
Channel positions                        : Front: L R
Sampling rate                            : 48.0 KHz
Bit depth                                : 16 bits
Stream size                              : 68.0 MiB (16%)
Language                                 : English
Encoded date                             : UTC 2013-09-30 23:42:34
Tagged date                              : UTC 2013-09-30 23:42:39

Other
ID                                       : 3
Type                                     : Time code
Format                                   : QuickTime TC
Duration                                 : 6mn 11s
Time code of first frame                 : 01:00:00:00
Time code, striped                       : Yes
Language                                 : English
Encoded date                             : UTC 2013-09-30 23:42:34
Tagged date                              : UTC 2013-09-30 23:42:39

Download
You must reply before you can see the hidden data contained here.
 

kimpoy13

Member
Registered
Feb 4, 2019
113
2
18
26
Lady Gaga - You And I (Master-1080p)



Genres: Pop Rock
Released: Aug 16, 2011​

Code:
Format                                   : MPEG-4
Format profile                           : QuickTime
Format settings                          : Compressed header
Codec ID                                 : qt 
File size                                : 437 MiB
Duration                                 : 6mn 11s
Overall bit rate                         : 9 887 Kbps
Encoded date                             : UTC 2013-09-30 23:42:34
Tagged date                              : UTC 2013-09-30 23:42:39
Writing library                          : Apple QuickTime
Media/UUID                               : 32273101-D371-4FF8-B690-3F3071E3ECD9
Media/History/UUID                       : 785E9B37-8F28-4BE1-9925-A6A6F6F607F1

Video
ID                                       : 1
Format                                   : AVC
Format/Info                              : Advanced Video Codec
Format profile                           : Main@L4
Format settings, CABAC                   : No
Format settings, ReFrames                : 2 frames
Format settings, GOP                     : M=2, N=24
Codec ID                                 : avc1
Codec ID/Info                            : Advanced Video Coding
Duration                                 : 6mn 11s
Bit rate                                 : 8 350 Kbps
Width                                    : 1 920 pixels
Clean aperture width                     : 1 888 pixels
Height                                   : 1 080 pixels
Clean aperture height                    : 1 062 pixels
Display aspect ratio                     : 16:9
Frame rate mode                          : Constant
Frame rate                               : 23.976 fps
Color space                              : YUV
Chroma subsampling                       : 4:2:0
Bit depth                                : 8 bits
Scan type                                : Progressive
Bits/(Pixel*Frame)                       : 0.168
Stream size                              : 369 MiB (84%)
Language                                 : English
Encoded date                             : UTC 2013-09-30 23:42:34
Tagged date                              : UTC 2013-09-30 23:42:39
Color range                              : Limited
Color primaries                          : BT.709
Transfer characteristics                 : BT.709
Matrix coefficients                      : BT.709

Audio
ID                                       : 2
Format                                   : PCM
Format settings, Endianness              : Big
Format settings, Sign                    : Signed
Codec ID                                 : twos
Duration                                 : 6mn 11s
Bit rate mode                            : Constant
Bit rate                                 : 1 536 Kbps
Channel(s)                               : 2 channels
Channel positions                        : Front: L R
Sampling rate                            : 48.0 KHz
Bit depth                                : 16 bits
Stream size                              : 68.0 MiB (16%)
Language                                 : English
Encoded date                             : UTC 2013-09-30 23:42:34
Tagged date                              : UTC 2013-09-30 23:42:39

Other
ID                                       : 3
Type                                     : Time code
Format                                   : QuickTime TC
Duration                                 : 6mn 11s
Time code of first frame                 : 01:00:00:00
Time code, striped                       : Yes
Language                                 : English
Encoded date                             : UTC 2013-09-30 23:42:34
Tagged date                              : UTC 2013-09-30 23:42:39

Download
***Hidden content cannot be quoted.***[/QUOTE]
 

babestv

New Member
Registered
May 2, 2020
27
0
1
27
Lady Gaga - You And I (Master-1080p)



Genres: Pop Rock
Released: Aug 16, 2011​

Code:
Format                                   : MPEG-4
Format profile                           : QuickTime
Format settings                          : Compressed header
Codec ID                                 : qt 
File size                                : 437 MiB
Duration                                 : 6mn 11s
Overall bit rate                         : 9 887 Kbps
Encoded date                             : UTC 2013-09-30 23:42:34
Tagged date                              : UTC 2013-09-30 23:42:39
Writing library                          : Apple QuickTime
Media/UUID                               : 32273101-D371-4FF8-B690-3F3071E3ECD9
Media/History/UUID                       : 785E9B37-8F28-4BE1-9925-A6A6F6F607F1

Video
ID                                       : 1
Format                                   : AVC
Format/Info                              : Advanced Video Codec
Format profile                           : Main@L4
Format settings, CABAC                   : No
Format settings, ReFrames                : 2 frames
Format settings, GOP                     : M=2, N=24
Codec ID                                 : avc1
Codec ID/Info                            : Advanced Video Coding
Duration                                 : 6mn 11s
Bit rate                                 : 8 350 Kbps
Width                                    : 1 920 pixels
Clean aperture width                     : 1 888 pixels
Height                                   : 1 080 pixels
Clean aperture height                    : 1 062 pixels
Display aspect ratio                     : 16:9
Frame rate mode                          : Constant
Frame rate                               : 23.976 fps
Color space                              : YUV
Chroma subsampling                       : 4:2:0
Bit depth                                : 8 bits
Scan type                                : Progressive
Bits/(Pixel*Frame)                       : 0.168
Stream size                              : 369 MiB (84%)
Language                                 : English
Encoded date                             : UTC 2013-09-30 23:42:34
Tagged date                              : UTC 2013-09-30 23:42:39
Color range                              : Limited
Color primaries                          : BT.709
Transfer characteristics                 : BT.709
Matrix coefficients                      : BT.709

Audio
ID                                       : 2
Format                                   : PCM
Format settings, Endianness              : Big
Format settings, Sign                    : Signed
Codec ID                                 : twos
Duration                                 : 6mn 11s
Bit rate mode                            : Constant
Bit rate                                 : 1 536 Kbps
Channel(s)                               : 2 channels
Channel positions                        : Front: L R
Sampling rate                            : 48.0 KHz
Bit depth                                : 16 bits
Stream size                              : 68.0 MiB (16%)
Language                                 : English
Encoded date                             : UTC 2013-09-30 23:42:34
Tagged date                              : UTC 2013-09-30 23:42:39

Other
ID                                       : 3
Type                                     : Time code
Format                                   : QuickTime TC
Duration                                 : 6mn 11s
Time code of first frame                 : 01:00:00:00
Time code, striped                       : Yes
Language                                 : English
Encoded date                             : UTC 2013-09-30 23:42:34
Tagged date                              : UTC 2013-09-30 23:42:39

Download
***Hidden content cannot be quoted.***
super