Master Lana Del Rey - Born to Die (Master-1080p)

NCURBAN

Well-Known Member
Administrative
May 25, 2016
3,347
3,635
113
Lana Del Rey - Born to Die (Master-1080p)



Geners: R&B/Soul
Released: Dec 14, 2011​

Code:
Format                                   : MPEG-4
Format profile                           : QuickTime
Codec ID                                 : qt 
File size                                : 345 MiB
Duration                                 : 4mn 45s
Overall bit rate                         : 10.1 Mbps
Encoded date                             : UTC 2011-12-05 12:12:44
Tagged date                              : UTC 2011-12-05 12:23:10
Writing application                      : CoreMediaAuthoring 706, CoreMedia 484.52, i386
Writing library                          : Apple QuickTime

Video
ID                                       : 2
Format                                   : AVC
Format/Info                              : Advanced Video Codec
Format profile                           : Main@L4
Format settings, CABAC                   : No
Format settings, ReFrames                : 2 frames
Codec ID                                 : avc1
Codec ID/Info                            : Advanced Video Coding
Duration                                 : 4mn 45s
Bit rate                                 : 9 836 Kbps
Width                                    : 1 888 pixels
Height                                   : 1 062 pixels
Display aspect ratio                     : 16:9
Frame rate mode                          : Constant
Frame rate                               : 25.000 fps
Color space                              : YUV
Chroma subsampling                       : 4:2:0
Bit depth                                : 8 bits
Scan type                                : Progressive
Bits/(Pixel*Frame)                       : 0.196
Stream size                              : 335 MiB (97%)
Title                                    : Core Media Video
Language                                 : English
Encoded date                             : UTC 2011-12-05 12:12:44
Tagged date                              : UTC 2011-12-05 12:23:10
Color range                              : Limited
Color primaries                          : BT.709
Transfer characteristics                 : BT.709
Matrix coefficients                      : BT.709

Audio
ID                                       : 1
Format                                   : AAC
Format/Info                              : Advanced Audio Codec
Format profile                           : LC
Codec ID                                 : 40
Duration                                 : 4mn 45s
Source duration                          : 4mn 45s
Bit rate mode                            : Constant
Bit rate                                 : 265 Kbps
Nominal bit rate                         : 128 Kbps
Channel(s)                               : 2 channels
Channel positions                        : Front: L R
Sampling rate                            : 44.1 KHz
Compression mode                         : Lossy
Stream size                              : 8.92 MiB (3%)
Source stream size                       : 8.92 MiB (3%)
Title                                    : Core Media Audio
Language                                 : English
Encoded date                             : UTC 2011-12-05 12:12:44
Tagged date                              : UTC 2011-12-05 12:23:10

Download
You must reply before you can see the hidden data contained here.
 
  • Like
Reactions: MsIvy1203

Natt

Member
Registered
Jun 11, 2018
56
0
6
21
Lana Del Rey - Born to Die (Master-1080p)



Geners: R&B/Soul
Released: Dec 14, 2011​

Code:
Format                                   : MPEG-4
Format profile                           : QuickTime
Codec ID                                 : qt
File size                                : 345 MiB
Duration                                 : 4mn 45s
Overall bit rate                         : 10.1 Mbps
Encoded date                             : UTC 2011-12-05 12:12:44
Tagged date                              : UTC 2011-12-05 12:23:10
Writing application                      : CoreMediaAuthoring 706, CoreMedia 484.52, i386
Writing library                          : Apple QuickTime

Video
ID                                       : 2
Format                                   : AVC
Format/Info                              : Advanced Video Codec
Format profile                           : Main@L4
Format settings, CABAC                   : No
Format settings, ReFrames                : 2 frames
Codec ID                                 : avc1
Codec ID/Info                            : Advanced Video Coding
Duration                                 : 4mn 45s
Bit rate                                 : 9 836 Kbps
Width                                    : 1 888 pixels
Height                                   : 1 062 pixels
Display aspect ratio                     : 16:9
Frame rate mode                          : Constant
Frame rate                               : 25.000 fps
Color space                              : YUV
Chroma subsampling                       : 4:2:0
Bit depth                                : 8 bits
Scan type                                : Progressive
Bits/(Pixel*Frame)                       : 0.196
Stream size                              : 335 MiB (97%)
Title                                    : Core Media Video
Language                                 : English
Encoded date                             : UTC 2011-12-05 12:12:44
Tagged date                              : UTC 2011-12-05 12:23:10
Color range                              : Limited
Color primaries                          : BT.709
Transfer characteristics                 : BT.709
Matrix coefficients                      : BT.709

Audio
ID                                       : 1
Format                                   : AAC
Format/Info                              : Advanced Audio Codec
Format profile                           : LC
Codec ID                                 : 40
Duration                                 : 4mn 45s
Source duration                          : 4mn 45s
Bit rate mode                            : Constant
Bit rate                                 : 265 Kbps
Nominal bit rate                         : 128 Kbps
Channel(s)                               : 2 channels
Channel positions                        : Front: L R
Sampling rate                            : 44.1 KHz
Compression mode                         : Lossy
Stream size                              : 8.92 MiB (3%)
Source stream size                       : 8.92 MiB (3%)
Title                                    : Core Media Audio
Language                                 : English
Encoded date                             : UTC 2011-12-05 12:12:44
Tagged date                              : UTC 2011-12-05 12:23:10

Download
***Hidden content cannot be quoted.***
 

KDHN

New Member
Registered
Dec 1, 2018
12
0
1
39
Lana Del Rey - Born to Die (Master-1080p)



Geners: R&B/Soul
Released: Dec 14, 2011​

Code:
Format                                   : MPEG-4
Format profile                           : QuickTime
Codec ID                                 : qt
File size                                : 345 MiB
Duration                                 : 4mn 45s
Overall bit rate                         : 10.1 Mbps
Encoded date                             : UTC 2011-12-05 12:12:44
Tagged date                              : UTC 2011-12-05 12:23:10
Writing application                      : CoreMediaAuthoring 706, CoreMedia 484.52, i386
Writing library                          : Apple QuickTime

Video
ID                                       : 2
Format                                   : AVC
Format/Info                              : Advanced Video Codec
Format profile                           : Main@L4
Format settings, CABAC                   : No
Format settings, ReFrames                : 2 frames
Codec ID                                 : avc1
Codec ID/Info                            : Advanced Video Coding
Duration                                 : 4mn 45s
Bit rate                                 : 9 836 Kbps
Width                                    : 1 888 pixels
Height                                   : 1 062 pixels
Display aspect ratio                     : 16:9
Frame rate mode                          : Constant
Frame rate                               : 25.000 fps
Color space                              : YUV
Chroma subsampling                       : 4:2:0
Bit depth                                : 8 bits
Scan type                                : Progressive
Bits/(Pixel*Frame)                       : 0.196
Stream size                              : 335 MiB (97%)
Title                                    : Core Media Video
Language                                 : English
Encoded date                             : UTC 2011-12-05 12:12:44
Tagged date                              : UTC 2011-12-05 12:23:10
Color range                              : Limited
Color primaries                          : BT.709
Transfer characteristics                 : BT.709
Matrix coefficients                      : BT.709

Audio
ID                                       : 1
Format                                   : AAC
Format/Info                              : Advanced Audio Codec
Format profile                           : LC
Codec ID                                 : 40
Duration                                 : 4mn 45s
Source duration                          : 4mn 45s
Bit rate mode                            : Constant
Bit rate                                 : 265 Kbps
Nominal bit rate                         : 128 Kbps
Channel(s)                               : 2 channels
Channel positions                        : Front: L R
Sampling rate                            : 44.1 KHz
Compression mode                         : Lossy
Stream size                              : 8.92 MiB (3%)
Source stream size                       : 8.92 MiB (3%)
Title                                    : Core Media Audio
Language                                 : English
Encoded date                             : UTC 2011-12-05 12:12:44
Tagged date                              : UTC 2011-12-05 12:23:10

Download
***Hidden content cannot be quoted.***
THANKS so much
 

reeno08

New Member
Registered
May 11, 2019
2
0
1
27
Lana Del Rey - Born to Die (Master-1080p)



Geners: R&B/Soul
Released: Dec 14, 2011​

Code:
Format                                   : MPEG-4
Format profile                           : QuickTime
Codec ID                                 : qt
File size                                : 345 MiB
Duration                                 : 4mn 45s
Overall bit rate                         : 10.1 Mbps
Encoded date                             : UTC 2011-12-05 12:12:44
Tagged date                              : UTC 2011-12-05 12:23:10
Writing application                      : CoreMediaAuthoring 706, CoreMedia 484.52, i386
Writing library                          : Apple QuickTime

Video
ID                                       : 2
Format                                   : AVC
Format/Info                              : Advanced Video Codec
Format profile                           : Main@L4
Format settings, CABAC                   : No
Format settings, ReFrames                : 2 frames
Codec ID                                 : avc1
Codec ID/Info                            : Advanced Video Coding
Duration                                 : 4mn 45s
Bit rate                                 : 9 836 Kbps
Width                                    : 1 888 pixels
Height                                   : 1 062 pixels
Display aspect ratio                     : 16:9
Frame rate mode                          : Constant
Frame rate                               : 25.000 fps
Color space                              : YUV
Chroma subsampling                       : 4:2:0
Bit depth                                : 8 bits
Scan type                                : Progressive
Bits/(Pixel*Frame)                       : 0.196
Stream size                              : 335 MiB (97%)
Title                                    : Core Media Video
Language                                 : English
Encoded date                             : UTC 2011-12-05 12:12:44
Tagged date                              : UTC 2011-12-05 12:23:10
Color range                              : Limited
Color primaries                          : BT.709
Transfer characteristics                 : BT.709
Matrix coefficients                      : BT.709

Audio
ID                                       : 1
Format                                   : AAC
Format/Info                              : Advanced Audio Codec
Format profile                           : LC
Codec ID                                 : 40
Duration                                 : 4mn 45s
Source duration                          : 4mn 45s
Bit rate mode                            : Constant
Bit rate                                 : 265 Kbps
Nominal bit rate                         : 128 Kbps
Channel(s)                               : 2 channels
Channel positions                        : Front: L R
Sampling rate                            : 44.1 KHz
Compression mode                         : Lossy
Stream size                              : 8.92 MiB (3%)
Source stream size                       : 8.92 MiB (3%)
Title                                    : Core Media Audio
Language                                 : English
Encoded date                             : UTC 2011-12-05 12:12:44
Tagged date                              : UTC 2011-12-05 12:23:10

Download
***Hidden content cannot be quoted.***
 

Raj

Member
Registered
Jul 3, 2019
67
0
6
29
Lana Del Rey - Born to Die (Master-1080p)



Geners: R&B/Soul
Released: Dec 14, 2011​

Code:
Format                                   : MPEG-4
Format profile                           : QuickTime
Codec ID                                 : qt
File size                                : 345 MiB
Duration                                 : 4mn 45s
Overall bit rate                         : 10.1 Mbps
Encoded date                             : UTC 2011-12-05 12:12:44
Tagged date                              : UTC 2011-12-05 12:23:10
Writing application                      : CoreMediaAuthoring 706, CoreMedia 484.52, i386
Writing library                          : Apple QuickTime

Video
ID                                       : 2
Format                                   : AVC
Format/Info                              : Advanced Video Codec
Format profile                           : Main@L4
Format settings, CABAC                   : No
Format settings, ReFrames                : 2 frames
Codec ID                                 : avc1
Codec ID/Info                            : Advanced Video Coding
Duration                                 : 4mn 45s
Bit rate                                 : 9 836 Kbps
Width                                    : 1 888 pixels
Height                                   : 1 062 pixels
Display aspect ratio                     : 16:9
Frame rate mode                          : Constant
Frame rate                               : 25.000 fps
Color space                              : YUV
Chroma subsampling                       : 4:2:0
Bit depth                                : 8 bits
Scan type                                : Progressive
Bits/(Pixel*Frame)                       : 0.196
Stream size                              : 335 MiB (97%)
Title                                    : Core Media Video
Language                                 : English
Encoded date                             : UTC 2011-12-05 12:12:44
Tagged date                              : UTC 2011-12-05 12:23:10
Color range                              : Limited
Color primaries                          : BT.709
Transfer characteristics                 : BT.709
Matrix coefficients                      : BT.709

Audio
ID                                       : 1
Format                                   : AAC
Format/Info                              : Advanced Audio Codec
Format profile                           : LC
Codec ID                                 : 40
Duration                                 : 4mn 45s
Source duration                          : 4mn 45s
Bit rate mode                            : Constant
Bit rate                                 : 265 Kbps
Nominal bit rate                         : 128 Kbps
Channel(s)                               : 2 channels
Channel positions                        : Front: L R
Sampling rate                            : 44.1 KHz
Compression mode                         : Lossy
Stream size                              : 8.92 MiB (3%)
Source stream size                       : 8.92 MiB (3%)
Title                                    : Core Media Audio
Language                                 : English
Encoded date                             : UTC 2011-12-05 12:12:44
Tagged date                              : UTC 2011-12-05 12:23:10

Download
***Hidden content cannot be quoted.***
Thank you very much!
 

babestv

New Member
Registered
May 2, 2020
27
0
1
27
Lana Del Rey - Born to Die (Master-1080p)



Geners: R&B/Soul
Released: Dec 14, 2011​

Code:
Format                                   : MPEG-4
Format profile                           : QuickTime
Codec ID                                 : qt
File size                                : 345 MiB
Duration                                 : 4mn 45s
Overall bit rate                         : 10.1 Mbps
Encoded date                             : UTC 2011-12-05 12:12:44
Tagged date                              : UTC 2011-12-05 12:23:10
Writing application                      : CoreMediaAuthoring 706, CoreMedia 484.52, i386
Writing library                          : Apple QuickTime

Video
ID                                       : 2
Format                                   : AVC
Format/Info                              : Advanced Video Codec
Format profile                           : Main@L4
Format settings, CABAC                   : No
Format settings, ReFrames                : 2 frames
Codec ID                                 : avc1
Codec ID/Info                            : Advanced Video Coding
Duration                                 : 4mn 45s
Bit rate                                 : 9 836 Kbps
Width                                    : 1 888 pixels
Height                                   : 1 062 pixels
Display aspect ratio                     : 16:9
Frame rate mode                          : Constant
Frame rate                               : 25.000 fps
Color space                              : YUV
Chroma subsampling                       : 4:2:0
Bit depth                                : 8 bits
Scan type                                : Progressive
Bits/(Pixel*Frame)                       : 0.196
Stream size                              : 335 MiB (97%)
Title                                    : Core Media Video
Language                                 : English
Encoded date                             : UTC 2011-12-05 12:12:44
Tagged date                              : UTC 2011-12-05 12:23:10
Color range                              : Limited
Color primaries                          : BT.709
Transfer characteristics                 : BT.709
Matrix coefficients                      : BT.709

Audio
ID                                       : 1
Format                                   : AAC
Format/Info                              : Advanced Audio Codec
Format profile                           : LC
Codec ID                                 : 40
Duration                                 : 4mn 45s
Source duration                          : 4mn 45s
Bit rate mode                            : Constant
Bit rate                                 : 265 Kbps
Nominal bit rate                         : 128 Kbps
Channel(s)                               : 2 channels
Channel positions                        : Front: L R
Sampling rate                            : 44.1 KHz
Compression mode                         : Lossy
Stream size                              : 8.92 MiB (3%)
Source stream size                       : 8.92 MiB (3%)
Title                                    : Core Media Audio
Language                                 : English
Encoded date                             : UTC 2011-12-05 12:12:44
Tagged date                              : UTC 2011-12-05 12:23:10

Download
***Hidden content cannot be quoted.***
super