Master Lana Del Rey - Music To Watch Boys To (Master-1080p)

NCURBAN

Well-Known Member
Administrative
May 25, 2016
3,347
3,635
113
Lana Del Rey - Music To Watch Boys To (Master-1080p)



Genre: Alternative
Released: Sep 30, 2015​

Code:
Format                                   : QuickTime
Format/Info                              : Original Apple specifications
File size                                : 531 MiB
Duration                                 : 4mn 50s
Overall bit rate mode                    : Variable
Overall bit rate                         : 15.3 Mbps
Encoded date                             : UTC 2015-09-08 08:56:40
Tagged date                              : UTC 2015-09-08 08:56:40
Writing library                          : Apple QuickTime

Video
ID                                       : 1
Format                                   : AVC
Format/Info                              : Advanced Video Codec
Format profile                           : Main@L4
Format settings, CABAC                   : Yes
Format settings, ReFrames                : 2 frames
Format settings, GOP                     : M=1, N=100
Codec ID                                 : avc1
Codec ID/Info                            : Advanced Video Coding
Duration                                 : 4mn 50s
Bit rate                                 : 15.0 Mbps
Width                                    : 1 920 pixels
Height                                   : 1 080 pixels
Display aspect ratio                     : 16:9
Frame rate mode                          : Constant
Frame rate                               : 23.976 fps
Standard                                 : NTSC
Color space                              : YUV
Chroma subsampling                       : 4:2:0
Bit depth                                : 8 bits
Scan type                                : Progressive
Bits/(Pixel*Frame)                       : 0.301
Stream size                              : 520 MiB (98%)
Language                                 : English
Encoded date                             : UTC 2015-09-08 08:56:40
Tagged date                              : UTC 2015-09-08 08:56:40
Color range                              : Limited
Color primaries                          : BT.709
Transfer characteristics                 : BT.709
Matrix coefficients                      : BT.709

Audio
ID                                       : 2
Format                                   : AAC
Format/Info                              : Advanced Audio Codec
Format profile                           : LC
Codec ID                                 : 40
Duration                                 : 4mn 50s
Bit rate mode                            : Variable
Bit rate                                 : 320 Kbps
Maximum bit rate                         : 325 Kbps
Channel(s)                               : 2 channels
Channel positions                        : Front: L R
Sampling rate                            : 48.0 KHz
Compression mode                         : Lossy
Stream size                              : 11.1 MiB (2%)
Language                                 : English
Encoded date                             : UTC 2015-09-08 08:56:40
Tagged date                              : UTC 2015-09-08 08:56:40

Download
[HIDE-REPLY]MEGA[/HIDE-REPLY]
 
  • Like
Reactions: kimpoy13

kimpoy13

Member
Registered
Feb 4, 2019
113
2
18
26
Lana Del Rey - Music To Watch Boys To (Master-1080p)



Genre: Alternative
Released: Sep 30, 2015​

Code:
Format                                   : QuickTime
Format/Info                              : Original Apple specifications
File size                                : 531 MiB
Duration                                 : 4mn 50s
Overall bit rate mode                    : Variable
Overall bit rate                         : 15.3 Mbps
Encoded date                             : UTC 2015-09-08 08:56:40
Tagged date                              : UTC 2015-09-08 08:56:40
Writing library                          : Apple QuickTime

Video
ID                                       : 1
Format                                   : AVC
Format/Info                              : Advanced Video Codec
Format profile                           : Main@L4
Format settings, CABAC                   : Yes
Format settings, ReFrames                : 2 frames
Format settings, GOP                     : M=1, N=100
Codec ID                                 : avc1
Codec ID/Info                            : Advanced Video Coding
Duration                                 : 4mn 50s
Bit rate                                 : 15.0 Mbps
Width                                    : 1 920 pixels
Height                                   : 1 080 pixels
Display aspect ratio                     : 16:9
Frame rate mode                          : Constant
Frame rate                               : 23.976 fps
Standard                                 : NTSC
Color space                              : YUV
Chroma subsampling                       : 4:2:0
Bit depth                                : 8 bits
Scan type                                : Progressive
Bits/(Pixel*Frame)                       : 0.301
Stream size                              : 520 MiB (98%)
Language                                 : English
Encoded date                             : UTC 2015-09-08 08:56:40
Tagged date                              : UTC 2015-09-08 08:56:40
Color range                              : Limited
Color primaries                          : BT.709
Transfer characteristics                 : BT.709
Matrix coefficients                      : BT.709

Audio
ID                                       : 2
Format                                   : AAC
Format/Info                              : Advanced Audio Codec
Format profile                           : LC
Codec ID                                 : 40
Duration                                 : 4mn 50s
Bit rate mode                            : Variable
Bit rate                                 : 320 Kbps
Maximum bit rate                         : 325 Kbps
Channel(s)                               : 2 channels
Channel positions                        : Front: L R
Sampling rate                            : 48.0 KHz
Compression mode                         : Lossy
Stream size                              : 11.1 MiB (2%)
Language                                 : English
Encoded date                             : UTC 2015-09-08 08:56:40
Tagged date                              : UTC 2015-09-08 08:56:40

Download
***Hidden content cannot be quoted.***[/QUOTE]
 

DimitarrH

New Member
Registered
Jul 28, 2019
7
0
1
40
Lana Del Rey - Music To Watch Boys To (Master-1080p)



Genre: Alternative
Released: Sep 30, 2015​

Code:
Format                                   : QuickTime
Format/Info                              : Original Apple specifications
File size                                : 531 MiB
Duration                                 : 4mn 50s
Overall bit rate mode                    : Variable
Overall bit rate                         : 15.3 Mbps
Encoded date                             : UTC 2015-09-08 08:56:40
Tagged date                              : UTC 2015-09-08 08:56:40
Writing library                          : Apple QuickTime

Video
ID                                       : 1
Format                                   : AVC
Format/Info                              : Advanced Video Codec
Format profile                           : Main@L4
Format settings, CABAC                   : Yes
Format settings, ReFrames                : 2 frames
Format settings, GOP                     : M=1, N=100
Codec ID                                 : avc1
Codec ID/Info                            : Advanced Video Coding
Duration                                 : 4mn 50s
Bit rate                                 : 15.0 Mbps
Width                                    : 1 920 pixels
Height                                   : 1 080 pixels
Display aspect ratio                     : 16:9
Frame rate mode                          : Constant
Frame rate                               : 23.976 fps
Standard                                 : NTSC
Color space                              : YUV
Chroma subsampling                       : 4:2:0
Bit depth                                : 8 bits
Scan type                                : Progressive
Bits/(Pixel*Frame)                       : 0.301
Stream size                              : 520 MiB (98%)
Language                                 : English
Encoded date                             : UTC 2015-09-08 08:56:40
Tagged date                              : UTC 2015-09-08 08:56:40
Color range                              : Limited
Color primaries                          : BT.709
Transfer characteristics                 : BT.709
Matrix coefficients                      : BT.709

Audio
ID                                       : 2
Format                                   : AAC
Format/Info                              : Advanced Audio Codec
Format profile                           : LC
Codec ID                                 : 40
Duration                                 : 4mn 50s
Bit rate mode                            : Variable
Bit rate                                 : 320 Kbps
Maximum bit rate                         : 325 Kbps
Channel(s)                               : 2 channels
Channel positions                        : Front: L R
Sampling rate                            : 48.0 KHz
Compression mode                         : Lossy
Stream size                              : 11.1 MiB (2%)
Language                                 : English
Encoded date                             : UTC 2015-09-08 08:56:40
Tagged date                              : UTC 2015-09-08 08:56:40

Download
***Hidden content cannot be quoted.***
 

Dave Sahani

Member
Registered
Sep 2, 2019
167
1
18
22
Lana Del Rey - Music To Watch Boys To (Master-1080p)



Genre: Alternative
Released: Sep 30, 2015​

Code:
Format                                   : QuickTime
Format/Info                              : Original Apple specifications
File size                                : 531 MiB
Duration                                 : 4mn 50s
Overall bit rate mode                    : Variable
Overall bit rate                         : 15.3 Mbps
Encoded date                             : UTC 2015-09-08 08:56:40
Tagged date                              : UTC 2015-09-08 08:56:40
Writing library                          : Apple QuickTime

Video
ID                                       : 1
Format                                   : AVC
Format/Info                              : Advanced Video Codec
Format profile                           : Main@L4
Format settings, CABAC                   : Yes
Format settings, ReFrames                : 2 frames
Format settings, GOP                     : M=1, N=100
Codec ID                                 : avc1
Codec ID/Info                            : Advanced Video Coding
Duration                                 : 4mn 50s
Bit rate                                 : 15.0 Mbps
Width                                    : 1 920 pixels
Height                                   : 1 080 pixels
Display aspect ratio                     : 16:9
Frame rate mode                          : Constant
Frame rate                               : 23.976 fps
Standard                                 : NTSC
Color space                              : YUV
Chroma subsampling                       : 4:2:0
Bit depth                                : 8 bits
Scan type                                : Progressive
Bits/(Pixel*Frame)                       : 0.301
Stream size                              : 520 MiB (98%)
Language                                 : English
Encoded date                             : UTC 2015-09-08 08:56:40
Tagged date                              : UTC 2015-09-08 08:56:40
Color range                              : Limited
Color primaries                          : BT.709
Transfer characteristics                 : BT.709
Matrix coefficients                      : BT.709

Audio
ID                                       : 2
Format                                   : AAC
Format/Info                              : Advanced Audio Codec
Format profile                           : LC
Codec ID                                 : 40
Duration                                 : 4mn 50s
Bit rate mode                            : Variable
Bit rate                                 : 320 Kbps
Maximum bit rate                         : 325 Kbps
Channel(s)                               : 2 channels
Channel positions                        : Front: L R
Sampling rate                            : 48.0 KHz
Compression mode                         : Lossy
Stream size                              : 11.1 MiB (2%)
Language                                 : English
Encoded date                             : UTC 2015-09-08 08:56:40
Tagged date                              : UTC 2015-09-08 08:56:40

Download
***Hidden content cannot be quoted.***