YouTube Linkin Park feat. Kiiara - Heavy (YouTube 1080p)

NCURBAN

Well-Known Member
Administrative
May 25, 2016
3,347
3,894
113
Linkin Park feat. Kiiara - Heavy (YouTube 1080p)



Genre: Alternative
Released: Mar 9, 2017
Copyright: (C) 2017 Warner Bros. Records Inc.
Code:
Format                                   : MPEG-4
Format profile                           : Base Media
Codec ID                                 : isom (isom/iso2/avc1/mp41)
File size                                : 28.5 MiB
Duration                                 : 2 min 48 s
Overall bit rate                         : 1 422 kb/s
Writing application                      : Lavf56.40.101

Video
ID                                       : 1
Format                                   : AVC
Format/Info                              : Advanced Video Codec
Format profile                           : High@L4
Format settings, CABAC                   : Yes
Format settings, ReFrames                : 3 frames
Codec ID                                 : avc1
Codec ID/Info                            : Advanced Video Coding
Duration                                 : 2 min 48 s
Bit rate                                 : 1 291 kb/s
Width                                    : 1 920 pixels
Height                                   : 724 pixels
Display aspect ratio                     : 2.652
Frame rate mode                          : Variable
Frame rate                               : 23.976 (23976/1000) FPS
Minimum frame rate                       : 23.974 FPS
Maximum frame rate                       : 90 000.000 FPS
Color space                              : YUV
Chroma subsampling                       : 4:2:0
Bit depth                                : 8 bits
Scan type                                : Progressive
Bits/(Pixel*Frame)                       : 0.039
Stream size                              : 25.9 MiB (91%)
Color range                              : Limited
Color primaries                          : BT.709
Transfer characteristics                 : BT.709
Matrix coefficients                      : BT.709

Audio
ID                                       : 2
Format                                   : AAC
Format/Info                              : Advanced Audio Codec
Format profile                           : LC
Codec ID                                 : 40
Duration                                 : 2 min 48 s
Bit rate mode                            : Constant
Bit rate                                 : 126 kb/s
Channel(s)                               : 2 channels
Channel positions                        : Front: L R
Sampling rate                            : 44.1 kHz
Frame rate                               : 43.066 FPS (1024 spf)
Compression mode                         : Lossy
Stream size                              : 2.52 MiB (9%)
Default                                  : Yes
Alternate group                          : 1

Download
You must reply before you can see the hidden data contained here.
 

itsmadmikey

New Member
Registered
Dec 16, 2018
20
0
1
17
Linkin Park feat. Kiiara - Heavy (YouTube 1080p)




Code:
Format                                   : MPEG-4[/SIZE][/LEFT]
[SIZE=4][LEFT]Format profile                           : Base Media
Codec ID                                 : isom (isom/iso2/avc1/mp41)
File size                                : 28.5 MiB
Duration                                 : 2 min 48 s
Overall bit rate                         : 1 422 kb/s
Writing application                      : Lavf56.40.101

Video
ID                                       : 1
Format                                   : AVC
Format/Info                              : Advanced Video Codec
Format profile                           : High@L4
Format settings, CABAC                   : Yes
Format settings, ReFrames                : 3 frames
Codec ID                                 : avc1
Codec ID/Info                            : Advanced Video Coding
Duration                                 : 2 min 48 s
Bit rate                                 : 1 291 kb/s
Width                                    : 1 920 pixels
Height                                   : 724 pixels
Display aspect ratio                     : 2.652
Frame rate mode                          : Variable
Frame rate                               : 23.976 (23976/1000) FPS
Minimum frame rate                       : 23.974 FPS
Maximum frame rate                       : 90 000.000 FPS
Color space                              : YUV
Chroma subsampling                       : 4:2:0
Bit depth                                : 8 bits
Scan type                                : Progressive
Bits/(Pixel*Frame)                       : 0.039
Stream size                              : 25.9 MiB (91%)
Color range                              : Limited
Color primaries                          : BT.709
Transfer characteristics                 : BT.709
Matrix coefficients                      : BT.709

Audio
ID                                       : 2
Format                                   : AAC
Format/Info                              : Advanced Audio Codec
Format profile                           : LC
Codec ID                                 : 40
Duration                                 : 2 min 48 s
Bit rate mode                            : Constant
Bit rate                                 : 126 kb/s
Channel(s)                               : 2 channels
Channel positions                        : Front: L R
Sampling rate                            : 44.1 kHz
Frame rate                               : 43.066 FPS (1024 spf)
Compression mode                         : Lossy
Stream size                              : 2.52 MiB (9%)
Default                                  : Yes
Alternate group                          : 1



Download
***Hidden content cannot be quoted.***
 

faruqe

Member
Registered
Sep 26, 2019
97
0
6
25
Linkin Park feat. Kiiara - Heavy (YouTube 1080p)




Code:
Format                                   : MPEG-4[/SIZE][/LEFT]
[SIZE=4][LEFT]Format profile                           : Base Media
Codec ID                                 : isom (isom/iso2/avc1/mp41)
File size                                : 28.5 MiB
Duration                                 : 2 min 48 s
Overall bit rate                         : 1 422 kb/s
Writing application                      : Lavf56.40.101

Video
ID                                       : 1
Format                                   : AVC
Format/Info                              : Advanced Video Codec
Format profile                           : High@L4
Format settings, CABAC                   : Yes
Format settings, ReFrames                : 3 frames
Codec ID                                 : avc1
Codec ID/Info                            : Advanced Video Coding
Duration                                 : 2 min 48 s
Bit rate                                 : 1 291 kb/s
Width                                    : 1 920 pixels
Height                                   : 724 pixels
Display aspect ratio                     : 2.652
Frame rate mode                          : Variable
Frame rate                               : 23.976 (23976/1000) FPS
Minimum frame rate                       : 23.974 FPS
Maximum frame rate                       : 90 000.000 FPS
Color space                              : YUV
Chroma subsampling                       : 4:2:0
Bit depth                                : 8 bits
Scan type                                : Progressive
Bits/(Pixel*Frame)                       : 0.039
Stream size                              : 25.9 MiB (91%)
Color range                              : Limited
Color primaries                          : BT.709
Transfer characteristics                 : BT.709
Matrix coefficients                      : BT.709

Audio
ID                                       : 2
Format                                   : AAC
Format/Info                              : Advanced Audio Codec
Format profile                           : LC
Codec ID                                 : 40
Duration                                 : 2 min 48 s
Bit rate mode                            : Constant
Bit rate                                 : 126 kb/s
Channel(s)                               : 2 channels
Channel positions                        : Front: L R
Sampling rate                            : 44.1 kHz
Frame rate                               : 43.066 FPS (1024 spf)
Compression mode                         : Lossy
Stream size                              : 2.52 MiB (9%)
Default                                  : Yes
Alternate group                          : 1



Download
***Hidden content cannot be quoted.***
Thanks