Master Linkin Park - Lost in the Echo (Master-1080p)

NCURBAN

Well-Known Member
Administrative
May 25, 2016
3,347
3,845
113
Linkin Park - Lost in the Echo (Master-1080p)



Genres: Alternative Rock, Electronic Rock, Rap Rock
Released: Sep 04, 2012​

Code:
Format                                   : MPEG-4
Format profile                           : QuickTime
Codec ID                                 : qt  
File size                                : 434 MiB
Duration                                 : 3mn 47s
Overall bit rate                         : 16.0 Mbps
Encoded date                             : UTC 2013-07-18 18:27:23
Tagged date                              : UTC 2013-07-18 18:27:39
Writing library                          : Apple QuickTime
Media/UUID                               : B24E913E-5C40-4FC3-9D7B-8A7133ABB8A2
Media/History/UUID                       : AD1A135E-87DB-4DBB-8F1F-6A10CB9597BC

Video
ID                                       : 1
Format                                   : AVC
Format/Info                              : Advanced Video Codec
Format profile                           : Main@L4.1
Format settings, CABAC                   : No
Format settings, ReFrames                : 2 frames
Codec ID                                 : avc1
Codec ID/Info                            : Advanced Video Coding
Duration                                 : 3mn 47s
Bit rate                                 : 15.6 Mbps
Width                                    : 1 920 pixels
Clean aperture width                     : 1 888 pixels
Height                                   : 1 080 pixels
Clean aperture height                    : 1 062 pixels
Display aspect ratio                     : 16:9
Frame rate mode                          : Constant
Frame rate                               : 23.976 fps
Color space                              : YUV
Chroma subsampling                       : 4:2:0
Bit depth                                : 8 bits
Scan type                                : Progressive
Bits/(Pixel*Frame)                       : 0.314
Stream size                              : 424 MiB (98%)
Language                                 : English
Encoded date                             : UTC 2013-07-18 18:27:22
Tagged date                              : UTC 2013-07-18 18:27:39
Color range                              : Limited
Color primaries                          : BT.709
Transfer characteristics                 : BT.709
Matrix coefficients                      : BT.709

Audio
ID                                       : 2
Format                                   : AAC
Format/Info                              : Advanced Audio Codec
Format profile                           : LC
Codec ID                                 : 40
Duration                                 : 3mn 47s
Source duration                          : 3mn 47s
Bit rate mode                            : Constant
Bit rate                                 : 320 Kbps
Channel(s)                               : 2 channels
Channel positions                        : Front: L R
Sampling rate                            : 48.0 KHz
Compression mode                         : Lossy
Stream size                              : 8.51 MiB (2%)
Source stream size                       : 8.51 MiB (2%)
Language                                 : English
Encoded date                             : UTC 2013-07-18 18:27:22
Tagged date                              : UTC 2013-07-18 18:27:39

Other
ID                                       : 3
Type                                     : Time code
Format                                   : QuickTime TC
Duration                                 : 3mn 47s
Time code of first frame                 : 01:00:00:00
Time code, striped                       : Yes
Title                                    : 001
Language                                 : English
Encoded date                             : UTC 2013-07-18 18:27:22
Tagged date                              : UTC 2013-07-18 18:27:39

Download
[HIDE-REPLY]MEGA[/HIDE-REPLY]
 
  • Like
Reactions: John Deo and RyanMJ

xXIMANXx

Member
Registered
Oct 31, 2018
378
6
18
20
Linkin Park - Lost in the Echo (Master-1080p)



Genres: Alternative Rock, Electronic Rock, Rap Rock
Released: Sep 04, 2012​

Code:
Format                                   : MPEG-4
Format profile                           : QuickTime
Codec ID                                 : qt 
File size                                : 434 MiB
Duration                                 : 3mn 47s
Overall bit rate                         : 16.0 Mbps
Encoded date                             : UTC 2013-07-18 18:27:23
Tagged date                              : UTC 2013-07-18 18:27:39
Writing library                          : Apple QuickTime
Media/UUID                               : B24E913E-5C40-4FC3-9D7B-8A7133ABB8A2
Media/History/UUID                       : AD1A135E-87DB-4DBB-8F1F-6A10CB9597BC

Video
ID                                       : 1
Format                                   : AVC
Format/Info                              : Advanced Video Codec
Format profile                           : Main@L4.1
Format settings, CABAC                   : No
Format settings, ReFrames                : 2 frames
Codec ID                                 : avc1
Codec ID/Info                            : Advanced Video Coding
Duration                                 : 3mn 47s
Bit rate                                 : 15.6 Mbps
Width                                    : 1 920 pixels
Clean aperture width                     : 1 888 pixels
Height                                   : 1 080 pixels
Clean aperture height                    : 1 062 pixels
Display aspect ratio                     : 16:9
Frame rate mode                          : Constant
Frame rate                               : 23.976 fps
Color space                              : YUV
Chroma subsampling                       : 4:2:0
Bit depth                                : 8 bits
Scan type                                : Progressive
Bits/(Pixel*Frame)                       : 0.314
Stream size                              : 424 MiB (98%)
Language                                 : English
Encoded date                             : UTC 2013-07-18 18:27:22
Tagged date                              : UTC 2013-07-18 18:27:39
Color range                              : Limited
Color primaries                          : BT.709
Transfer characteristics                 : BT.709
Matrix coefficients                      : BT.709

Audio
ID                                       : 2
Format                                   : AAC
Format/Info                              : Advanced Audio Codec
Format profile                           : LC
Codec ID                                 : 40
Duration                                 : 3mn 47s
Source duration                          : 3mn 47s
Bit rate mode                            : Constant
Bit rate                                 : 320 Kbps
Channel(s)                               : 2 channels
Channel positions                        : Front: L R
Sampling rate                            : 48.0 KHz
Compression mode                         : Lossy
Stream size                              : 8.51 MiB (2%)
Source stream size                       : 8.51 MiB (2%)
Language                                 : English
Encoded date                             : UTC 2013-07-18 18:27:22
Tagged date                              : UTC 2013-07-18 18:27:39

Other
ID                                       : 3
Type                                     : Time code
Format                                   : QuickTime TC
Duration                                 : 3mn 47s
Time code of first frame                 : 01:00:00:00
Time code, striped                       : Yes
Title                                    : 001
Language                                 : English
Encoded date                             : UTC 2013-07-18 18:27:22
Tagged date                              : UTC 2013-07-18 18:27:39

Download
***Hidden content cannot be quoted.***
 

ast_san

New Member
Registered
Jan 9, 2019
7
0
1
31
Linkin Park - Lost in the Echo (Master-1080p)



Genres: Alternative Rock, Electronic Rock, Rap Rock
Released: Sep 04, 2012​

Code:
Format                                   : MPEG-4
Format profile                           : QuickTime
Codec ID                                 : qt 
File size                                : 434 MiB
Duration                                 : 3mn 47s
Overall bit rate                         : 16.0 Mbps
Encoded date                             : UTC 2013-07-18 18:27:23
Tagged date                              : UTC 2013-07-18 18:27:39
Writing library                          : Apple QuickTime
Media/UUID                               : B24E913E-5C40-4FC3-9D7B-8A7133ABB8A2
Media/History/UUID                       : AD1A135E-87DB-4DBB-8F1F-6A10CB9597BC

Video
ID                                       : 1
Format                                   : AVC
Format/Info                              : Advanced Video Codec
Format profile                           : Main@L4.1
Format settings, CABAC                   : No
Format settings, ReFrames                : 2 frames
Codec ID                                 : avc1
Codec ID/Info                            : Advanced Video Coding
Duration                                 : 3mn 47s
Bit rate                                 : 15.6 Mbps
Width                                    : 1 920 pixels
Clean aperture width                     : 1 888 pixels
Height                                   : 1 080 pixels
Clean aperture height                    : 1 062 pixels
Display aspect ratio                     : 16:9
Frame rate mode                          : Constant
Frame rate                               : 23.976 fps
Color space                              : YUV
Chroma subsampling                       : 4:2:0
Bit depth                                : 8 bits
Scan type                                : Progressive
Bits/(Pixel*Frame)                       : 0.314
Stream size                              : 424 MiB (98%)
Language                                 : English
Encoded date                             : UTC 2013-07-18 18:27:22
Tagged date                              : UTC 2013-07-18 18:27:39
Color range                              : Limited
Color primaries                          : BT.709
Transfer characteristics                 : BT.709
Matrix coefficients                      : BT.709

Audio
ID                                       : 2
Format                                   : AAC
Format/Info                              : Advanced Audio Codec
Format profile                           : LC
Codec ID                                 : 40
Duration                                 : 3mn 47s
Source duration                          : 3mn 47s
Bit rate mode                            : Constant
Bit rate                                 : 320 Kbps
Channel(s)                               : 2 channels
Channel positions                        : Front: L R
Sampling rate                            : 48.0 KHz
Compression mode                         : Lossy
Stream size                              : 8.51 MiB (2%)
Source stream size                       : 8.51 MiB (2%)
Language                                 : English
Encoded date                             : UTC 2013-07-18 18:27:22
Tagged date                              : UTC 2013-07-18 18:27:39

Other
ID                                       : 3
Type                                     : Time code
Format                                   : QuickTime TC
Duration                                 : 3mn 47s
Time code of first frame                 : 01:00:00:00
Time code, striped                       : Yes
Title                                    : 001
Language                                 : English
Encoded date                             : UTC 2013-07-18 18:27:22
Tagged date                              : UTC 2013-07-18 18:27:39

Download
***Hidden content cannot be quoted.***
 

Icaka03

Member
Registered
May 11, 2019
99
1
8
24
Linkin Park - Lost in the Echo (Master-1080p)



Genres: Alternative Rock, Electronic Rock, Rap Rock
Released: Sep 04, 2012​

Code:
Format                                   : MPEG-4
Format profile                           : QuickTime
Codec ID                                 : qt 
File size                                : 434 MiB
Duration                                 : 3mn 47s
Overall bit rate                         : 16.0 Mbps
Encoded date                             : UTC 2013-07-18 18:27:23
Tagged date                              : UTC 2013-07-18 18:27:39
Writing library                          : Apple QuickTime
Media/UUID                               : B24E913E-5C40-4FC3-9D7B-8A7133ABB8A2
Media/History/UUID                       : AD1A135E-87DB-4DBB-8F1F-6A10CB9597BC

Video
ID                                       : 1
Format                                   : AVC
Format/Info                              : Advanced Video Codec
Format profile                           : Main@L4.1
Format settings, CABAC                   : No
Format settings, ReFrames                : 2 frames
Codec ID                                 : avc1
Codec ID/Info                            : Advanced Video Coding
Duration                                 : 3mn 47s
Bit rate                                 : 15.6 Mbps
Width                                    : 1 920 pixels
Clean aperture width                     : 1 888 pixels
Height                                   : 1 080 pixels
Clean aperture height                    : 1 062 pixels
Display aspect ratio                     : 16:9
Frame rate mode                          : Constant
Frame rate                               : 23.976 fps
Color space                              : YUV
Chroma subsampling                       : 4:2:0
Bit depth                                : 8 bits
Scan type                                : Progressive
Bits/(Pixel*Frame)                       : 0.314
Stream size                              : 424 MiB (98%)
Language                                 : English
Encoded date                             : UTC 2013-07-18 18:27:22
Tagged date                              : UTC 2013-07-18 18:27:39
Color range                              : Limited
Color primaries                          : BT.709
Transfer characteristics                 : BT.709
Matrix coefficients                      : BT.709

Audio
ID                                       : 2
Format                                   : AAC
Format/Info                              : Advanced Audio Codec
Format profile                           : LC
Codec ID                                 : 40
Duration                                 : 3mn 47s
Source duration                          : 3mn 47s
Bit rate mode                            : Constant
Bit rate                                 : 320 Kbps
Channel(s)                               : 2 channels
Channel positions                        : Front: L R
Sampling rate                            : 48.0 KHz
Compression mode                         : Lossy
Stream size                              : 8.51 MiB (2%)
Source stream size                       : 8.51 MiB (2%)
Language                                 : English
Encoded date                             : UTC 2013-07-18 18:27:22
Tagged date                              : UTC 2013-07-18 18:27:39

Other
ID                                       : 3
Type                                     : Time code
Format                                   : QuickTime TC
Duration                                 : 3mn 47s
Time code of first frame                 : 01:00:00:00
Time code, striped                       : Yes
Title                                    : 001
Language                                 : English
Encoded date                             : UTC 2013-07-18 18:27:22
Tagged date                              : UTC 2013-07-18 18:27:39

Download
***Hidden content cannot be quoted.***
thnks
 

Raj

Member
Registered
Jul 3, 2019
67
0
6
29
Thank you very much!
Linkin Park - Lost in the Echo (Master-1080p)



Genres: Alternative Rock, Electronic Rock, Rap Rock
Released: Sep 04, 2012​

Code:
Format                                   : MPEG-4
Format profile                           : QuickTime
Codec ID                                 : qt 
File size                                : 434 MiB
Duration                                 : 3mn 47s
Overall bit rate                         : 16.0 Mbps
Encoded date                             : UTC 2013-07-18 18:27:23
Tagged date                              : UTC 2013-07-18 18:27:39
Writing library                          : Apple QuickTime
Media/UUID                               : B24E913E-5C40-4FC3-9D7B-8A7133ABB8A2
Media/History/UUID                       : AD1A135E-87DB-4DBB-8F1F-6A10CB9597BC

Video
ID                                       : 1
Format                                   : AVC
Format/Info                              : Advanced Video Codec
Format profile                           : Main@L4.1
Format settings, CABAC                   : No
Format settings, ReFrames                : 2 frames
Codec ID                                 : avc1
Codec ID/Info                            : Advanced Video Coding
Duration                                 : 3mn 47s
Bit rate                                 : 15.6 Mbps
Width                                    : 1 920 pixels
Clean aperture width                     : 1 888 pixels
Height                                   : 1 080 pixels
Clean aperture height                    : 1 062 pixels
Display aspect ratio                     : 16:9
Frame rate mode                          : Constant
Frame rate                               : 23.976 fps
Color space                              : YUV
Chroma subsampling                       : 4:2:0
Bit depth                                : 8 bits
Scan type                                : Progressive
Bits/(Pixel*Frame)                       : 0.314
Stream size                              : 424 MiB (98%)
Language                                 : English
Encoded date                             : UTC 2013-07-18 18:27:22
Tagged date                              : UTC 2013-07-18 18:27:39
Color range                              : Limited
Color primaries                          : BT.709
Transfer characteristics                 : BT.709
Matrix coefficients                      : BT.709

Audio
ID                                       : 2
Format                                   : AAC
Format/Info                              : Advanced Audio Codec
Format profile                           : LC
Codec ID                                 : 40
Duration                                 : 3mn 47s
Source duration                          : 3mn 47s
Bit rate mode                            : Constant
Bit rate                                 : 320 Kbps
Channel(s)                               : 2 channels
Channel positions                        : Front: L R
Sampling rate                            : 48.0 KHz
Compression mode                         : Lossy
Stream size                              : 8.51 MiB (2%)
Source stream size                       : 8.51 MiB (2%)
Language                                 : English
Encoded date                             : UTC 2013-07-18 18:27:22
Tagged date                              : UTC 2013-07-18 18:27:39

Other
ID                                       : 3
Type                                     : Time code
Format                                   : QuickTime TC
Duration                                 : 3mn 47s
Time code of first frame                 : 01:00:00:00
Time code, striped                       : Yes
Title                                    : 001
Language                                 : English
Encoded date                             : UTC 2013-07-18 18:27:22
Tagged date                              : UTC 2013-07-18 18:27:39

Download
***Hidden content cannot be quoted.***
 

John Deo

Member
Registered
Jul 24, 2019
36
0
6
27
Linkin Park - Lost in the Echo (Master-1080p)



Genres: Alternative Rock, Electronic Rock, Rap Rock
Released: Sep 04, 2012​

Code:
Format                                   : MPEG-4
Format profile                           : QuickTime
Codec ID                                 : qt 
File size                                : 434 MiB
Duration                                 : 3mn 47s
Overall bit rate                         : 16.0 Mbps
Encoded date                             : UTC 2013-07-18 18:27:23
Tagged date                              : UTC 2013-07-18 18:27:39
Writing library                          : Apple QuickTime
Media/UUID                               : B24E913E-5C40-4FC3-9D7B-8A7133ABB8A2
Media/History/UUID                       : AD1A135E-87DB-4DBB-8F1F-6A10CB9597BC

Video
ID                                       : 1
Format                                   : AVC
Format/Info                              : Advanced Video Codec
Format profile                           : Main@L4.1
Format settings, CABAC                   : No
Format settings, ReFrames                : 2 frames
Codec ID                                 : avc1
Codec ID/Info                            : Advanced Video Coding
Duration                                 : 3mn 47s
Bit rate                                 : 15.6 Mbps
Width                                    : 1 920 pixels
Clean aperture width                     : 1 888 pixels
Height                                   : 1 080 pixels
Clean aperture height                    : 1 062 pixels
Display aspect ratio                     : 16:9
Frame rate mode                          : Constant
Frame rate                               : 23.976 fps
Color space                              : YUV
Chroma subsampling                       : 4:2:0
Bit depth                                : 8 bits
Scan type                                : Progressive
Bits/(Pixel*Frame)                       : 0.314
Stream size                              : 424 MiB (98%)
Language                                 : English
Encoded date                             : UTC 2013-07-18 18:27:22
Tagged date                              : UTC 2013-07-18 18:27:39
Color range                              : Limited
Color primaries                          : BT.709
Transfer characteristics                 : BT.709
Matrix coefficients                      : BT.709

Audio
ID                                       : 2
Format                                   : AAC
Format/Info                              : Advanced Audio Codec
Format profile                           : LC
Codec ID                                 : 40
Duration                                 : 3mn 47s
Source duration                          : 3mn 47s
Bit rate mode                            : Constant
Bit rate                                 : 320 Kbps
Channel(s)                               : 2 channels
Channel positions                        : Front: L R
Sampling rate                            : 48.0 KHz
Compression mode                         : Lossy
Stream size                              : 8.51 MiB (2%)
Source stream size                       : 8.51 MiB (2%)
Language                                 : English
Encoded date                             : UTC 2013-07-18 18:27:22
Tagged date                              : UTC 2013-07-18 18:27:39

Other
ID                                       : 3
Type                                     : Time code
Format                                   : QuickTime TC
Duration                                 : 3mn 47s
Time code of first frame                 : 01:00:00:00
Time code, striped                       : Yes
Title                                    : 001
Language                                 : English
Encoded date                             : UTC 2013-07-18 18:27:22
Tagged date                              : UTC 2013-07-18 18:27:39

Download
***Hidden content cannot be quoted.***
000000000000000000000000000000000