1. If this is your first visit, be sure to check out the FAQ by clicking the link above. You may have to register before you can access the full forum. Follow the link above to Register. To start viewing messages, select the forum that you want to visit from the selection below.
    Dismiss Notice

UHD 4K Linkin Park - O2 Berlin 2014 [UHD-2160p]

Discussion in 'Live Performances & Concerts' started by NCURBAN, Oct 6, 2016.

  1. NCURBAN

    NCURBAN Well-Known Member Administrative

    Joined:
    May 25, 2016
    Messages:
    2,728
    Likes Received:
    965
    Trophy Points:
    113
    Linkin Park - O2 Berlin 2014 [UHD-2160p]

    [​IMG]

    Setlist:
    1. Mashup Intro #2
    2. Guilty All the Same
    3. Given Up
    4. Points of Authority
    5. One Step Closer
    6. Blackout
    7. Papercut
    8. Rebellion
    9. Runaway
    10. Wastelands
    11. Castle of Glass
    12. Leave Out All the Rest / Shadow of the Day / Iridescent
    13. Robot Boy
    14. Joe Hahn Solo
    15. Burn It Down
    16. Waiting for the End
    17. Final Masquerade
    18. Wretches and Kings / Remember the Name
    19. Numb
    20. In the End
    21. Faint
    22. Lost in the Echo
    23. New Divide
    24. Crawling
    25. Until It's Gone
    26. What I've Done
    27. Bleed It Out
    Code:
    Format                                   : MPEG-TS
    File size                                : 21.3 GiB
    Duration                                 : 1h 37mn
    Overall bit rate mode                    : Variable
    Overall bit rate                         : 31.2 Mbps
    
    Video
    ID                                       : 210 (0xD2)
    Menu ID                                  : 2 (0x2)
    Format                                   : HEVC
    Format/Info                              : High Efficiency Video Coding
    Format profile                           : Main@L5.1@Main
    Codec ID                                 : 36
    Duration                                 : 1h 37mn
    Bit rate                                 : 29.5 Mbps
    Width                                    : 3 840 pixels
    Height                                   : 2 160 pixels
    Display aspect ratio                     : 16:9
    Frame rate                               : 50.000 fps
    Color space                              : YUV
    Chroma subsampling                       : 4:2:0
    Bit depth                                : 8 bits
    Bits/(Pixel*Frame)                       : 0.071
    Stream size                              : 20.2 GiB (94%)
    
    Audio
    ID                                       : 220 (0xDC)
    Menu ID                                  : 2 (0x2)
    Format                                   : MPEG Audio
    Format version                           : Version 1
    Format profile                           : Layer 2
    Codec ID                                 : 3
    Duration                                 : 1h 37mn
    Bit rate mode                            : Constant
    Bit rate                                 : 192 Kbps
    Channel(s)                               : 2 channels
    Sampling rate                            : 48.0 KHz
    Compression mode                         : Lossy
    Delay relative to video                  : -1s 201ms
    Stream size                              : 134 MiB (1%)

    Download
    Hidden Content:
    You must reply before you can see the hidden data contained here.
     
  2. Loading...


  3. Andre

    Andre New Member Registered

    Joined:
    Aug 11, 2017
    Messages:
    2
    Likes Received:
    0
    Trophy Points:
    1
    Thank you
     
  4. corlandz

    corlandz New Member Registered

    Joined:
    Dec 23, 2017
    Messages:
    2
    Likes Received:
    0
    Trophy Points:
    1
    Thanks!!!
     
  5. marioluyz

    marioluyz New Member Registered

    Joined:
    Jul 30, 2018
    Messages:
    1
    Likes Received:
    0
    Trophy Points:
    1
    Thanks!!!
     
  6. livelymind

    livelymind New Member Registered

    Joined:
    Sep 23, 2018
    Messages:
    6
    Likes Received:
    0
    Trophy Points:
    1
    thx
     
  7. lagoslulz

    lagoslulz New Member Registered

    Joined:
    May 16, 2018
    Messages:
    15
    Likes Received:
    0
    Trophy Points:
    1
    Thank you
     
  8. Venkateshk

    Venkateshk Member Registered

    Joined:
    Jan 27, 2019
    Messages:
    42
    Likes Received:
    0
    Trophy Points:
    6
    Love it
     
  9. fcyrus

    fcyrus New Member Registered

    Joined:
    Jun 18, 2019
    Messages:
    16
    Likes Received:
    0
    Trophy Points:
    1
    t
    thank you!
     
  10. Raj

    Raj Member Registered

    Joined:
    Jul 3, 2019
    Messages:
    67
    Likes Received:
    0
    Trophy Points:
    6
    Thank you very much!
     
  11. lstice

    lstice New Member Registered

    Joined:
    Jul 11, 2019
    Messages:
    2
    Likes Received:
    0
    Trophy Points:
    1
    thank you!!!!!!!!!!!!!!!!!!!!!!!!!!!!!!!!!!!!!!!!!!