UHD 4K Linkin Park - O2 Berlin 2014 [UHD-2160p]

NCURBAN

Well-Known Member
Administrative
May 25, 2016
3,360
4,206
113
Linkin Park - O2 Berlin 2014 [UHD-2160p]


Setlist:
  1. Mashup Intro #2
  2. Guilty All the Same
  3. Given Up
  4. Points of Authority
  5. One Step Closer
  6. Blackout
  7. Papercut
  8. Rebellion
  9. Runaway
  10. Wastelands
  11. Castle of Glass
  12. Leave Out All the Rest / Shadow of the Day / Iridescent
  13. Robot Boy
  14. Joe Hahn Solo
  15. Burn It Down
  16. Waiting for the End
  17. Final Masquerade
  18. Wretches and Kings / Remember the Name
  19. Numb
  20. In the End
  21. Faint
  22. Lost in the Echo
  23. New Divide
  24. Crawling
  25. Until It's Gone
  26. What I've Done
  27. Bleed It Out
Code:
Format                                   : MPEG-TS
File size                                : 21.3 GiB
Duration                                 : 1h 37mn
Overall bit rate mode                    : Variable
Overall bit rate                         : 31.2 Mbps

Video
ID                                       : 210 (0xD2)
Menu ID                                  : 2 (0x2)
Format                                   : HEVC
Format/Info                              : High Efficiency Video Coding
Format profile                           : Main@L5.1@Main
Codec ID                                 : 36
Duration                                 : 1h 37mn
Bit rate                                 : 29.5 Mbps
Width                                    : 3 840 pixels
Height                                   : 2 160 pixels
Display aspect ratio                     : 16:9
Frame rate                               : 50.000 fps
Color space                              : YUV
Chroma subsampling                       : 4:2:0
Bit depth                                : 8 bits
Bits/(Pixel*Frame)                       : 0.071
Stream size                              : 20.2 GiB (94%)

Audio
ID                                       : 220 (0xDC)
Menu ID                                  : 2 (0x2)
Format                                   : MPEG Audio
Format version                           : Version 1
Format profile                           : Layer 2
Codec ID                                 : 3
Duration                                 : 1h 37mn
Bit rate mode                            : Constant
Bit rate                                 : 192 Kbps
Channel(s)                               : 2 channels
Sampling rate                            : 48.0 KHz
Compression mode                         : Lossy
Delay relative to video                  : -1s 201ms
Stream size                              : 134 MiB (1%)

Download
[HIDE-REPLY]MEGA[/HIDE-REPLY]
 

livelymind

New Member
Registered
Sep 23, 2018
6
0
1
28
Linkin Park - O2 Berlin 2014 [UHD-2160p]


Setlist:

  1. Mashup Intro #2
    Guilty All the Same
    Given Up
    Points of Authority
    One Step Closer
    Blackout
    Papercut
    Rebellion
    Runaway
    Wastelands
    Castle of Glass
    Leave Out All the Rest / Shadow of the Day / Iridescent
    Robot Boy
    Joe Hahn Solo
    Burn It Down
    Waiting for the End
    Final Masquerade
    Wretches and Kings / Remember the Name
    Numb
    In the End
    Faint
    Lost in the Echo
    New Divide
    Crawling
    Until It's Gone
    What I've Done
    Bleed It Out
Code:
Format                                   : MPEG-TS
File size                                : 21.3 GiB
Duration                                 : 1h 37mn
Overall bit rate mode                    : Variable
Overall bit rate                         : 31.2 Mbps

Video
ID                                       : 210 (0xD2)
Menu ID                                  : 2 (0x2)
Format                                   : HEVC
Format/Info                              : High Efficiency Video Coding
Format profile                           : Main@L5.1@Main
Codec ID                                 : 36
Duration                                 : 1h 37mn
Bit rate                                 : 29.5 Mbps
Width                                    : 3 840 pixels
Height                                   : 2 160 pixels
Display aspect ratio                     : 16:9
Frame rate                               : 50.000 fps
Color space                              : YUV
Chroma subsampling                       : 4:2:0
Bit depth                                : 8 bits
Bits/(Pixel*Frame)                       : 0.071
Stream size                              : 20.2 GiB (94%)

Audio
ID                                       : 220 (0xDC)
Menu ID                                  : 2 (0x2)
Format                                   : MPEG Audio
Format version                           : Version 1
Format profile                           : Layer 2
Codec ID                                 : 3
Duration                                 : 1h 37mn
Bit rate mode                            : Constant
Bit rate                                 : 192 Kbps
Channel(s)                               : 2 channels
Sampling rate                            : 48.0 KHz
Compression mode                         : Lossy
Delay relative to video                  : -1s 201ms
Stream size                              : 134 MiB (1%)

Download
***Hidden content cannot be quoted.***
thx
 

Venkateshk

Member
Registered
Jan 27, 2019
43
0
6
27
Linkin Park - O2 Berlin 2014 [UHD-2160p]


Setlist:

  1. Mashup Intro #2
    Guilty All the Same
    Given Up
    Points of Authority
    One Step Closer
    Blackout
    Papercut
    Rebellion
    Runaway
    Wastelands
    Castle of Glass
    Leave Out All the Rest / Shadow of the Day / Iridescent
    Robot Boy
    Joe Hahn Solo
    Burn It Down
    Waiting for the End
    Final Masquerade
    Wretches and Kings / Remember the Name
    Numb
    In the End
    Faint
    Lost in the Echo
    New Divide
    Crawling
    Until It's Gone
    What I've Done
    Bleed It Out
Code:
Format                                   : MPEG-TS
File size                                : 21.3 GiB
Duration                                 : 1h 37mn
Overall bit rate mode                    : Variable
Overall bit rate                         : 31.2 Mbps

Video
ID                                       : 210 (0xD2)
Menu ID                                  : 2 (0x2)
Format                                   : HEVC
Format/Info                              : High Efficiency Video Coding
Format profile                           : Main@L5.1@Main
Codec ID                                 : 36
Duration                                 : 1h 37mn
Bit rate                                 : 29.5 Mbps
Width                                    : 3 840 pixels
Height                                   : 2 160 pixels
Display aspect ratio                     : 16:9
Frame rate                               : 50.000 fps
Color space                              : YUV
Chroma subsampling                       : 4:2:0
Bit depth                                : 8 bits
Bits/(Pixel*Frame)                       : 0.071
Stream size                              : 20.2 GiB (94%)

Audio
ID                                       : 220 (0xDC)
Menu ID                                  : 2 (0x2)
Format                                   : MPEG Audio
Format version                           : Version 1
Format profile                           : Layer 2
Codec ID                                 : 3
Duration                                 : 1h 37mn
Bit rate mode                            : Constant
Bit rate                                 : 192 Kbps
Channel(s)                               : 2 channels
Sampling rate                            : 48.0 KHz
Compression mode                         : Lossy
Delay relative to video                  : -1s 201ms
Stream size                              : 134 MiB (1%)

Download
***Hidden content cannot be quoted.***
Love it
 

fcyrus

New Member
Registered
Jun 18, 2019
16
0
1
37
t
Linkin Park - O2 Berlin 2014 [UHD-2160p]


Setlist:

  1. Mashup Intro #2
    Guilty All the Same
    Given Up
    Points of Authority
    One Step Closer
    Blackout
    Papercut
    Rebellion
    Runaway
    Wastelands
    Castle of Glass
    Leave Out All the Rest / Shadow of the Day / Iridescent
    Robot Boy
    Joe Hahn Solo
    Burn It Down
    Waiting for the End
    Final Masquerade
    Wretches and Kings / Remember the Name
    Numb
    In the End
    Faint
    Lost in the Echo
    New Divide
    Crawling
    Until It's Gone
    What I've Done
    Bleed It Out
Code:
Format                                   : MPEG-TS
File size                                : 21.3 GiB
Duration                                 : 1h 37mn
Overall bit rate mode                    : Variable
Overall bit rate                         : 31.2 Mbps

Video
ID                                       : 210 (0xD2)
Menu ID                                  : 2 (0x2)
Format                                   : HEVC
Format/Info                              : High Efficiency Video Coding
Format profile                           : Main@L5.1@Main
Codec ID                                 : 36
Duration                                 : 1h 37mn
Bit rate                                 : 29.5 Mbps
Width                                    : 3 840 pixels
Height                                   : 2 160 pixels
Display aspect ratio                     : 16:9
Frame rate                               : 50.000 fps
Color space                              : YUV
Chroma subsampling                       : 4:2:0
Bit depth                                : 8 bits
Bits/(Pixel*Frame)                       : 0.071
Stream size                              : 20.2 GiB (94%)

Audio
ID                                       : 220 (0xDC)
Menu ID                                  : 2 (0x2)
Format                                   : MPEG Audio
Format version                           : Version 1
Format profile                           : Layer 2
Codec ID                                 : 3
Duration                                 : 1h 37mn
Bit rate mode                            : Constant
Bit rate                                 : 192 Kbps
Channel(s)                               : 2 channels
Sampling rate                            : 48.0 KHz
Compression mode                         : Lossy
Delay relative to video                  : -1s 201ms
Stream size                              : 134 MiB (1%)

Download
***Hidden content cannot be quoted.***
thank you!
 

Raj

Member
Registered
Jul 3, 2019
67
0
6
29
Linkin Park - O2 Berlin 2014 [UHD-2160p]


Setlist:

  1. Mashup Intro #2
    Guilty All the Same
    Given Up
    Points of Authority
    One Step Closer
    Blackout
    Papercut
    Rebellion
    Runaway
    Wastelands
    Castle of Glass
    Leave Out All the Rest / Shadow of the Day / Iridescent
    Robot Boy
    Joe Hahn Solo
    Burn It Down
    Waiting for the End
    Final Masquerade
    Wretches and Kings / Remember the Name
    Numb
    In the End
    Faint
    Lost in the Echo
    New Divide
    Crawling
    Until It's Gone
    What I've Done
    Bleed It Out
Code:
Format                                   : MPEG-TS
File size                                : 21.3 GiB
Duration                                 : 1h 37mn
Overall bit rate mode                    : Variable
Overall bit rate                         : 31.2 Mbps

Video
ID                                       : 210 (0xD2)
Menu ID                                  : 2 (0x2)
Format                                   : HEVC
Format/Info                              : High Efficiency Video Coding
Format profile                           : Main@L5.1@Main
Codec ID                                 : 36
Duration                                 : 1h 37mn
Bit rate                                 : 29.5 Mbps
Width                                    : 3 840 pixels
Height                                   : 2 160 pixels
Display aspect ratio                     : 16:9
Frame rate                               : 50.000 fps
Color space                              : YUV
Chroma subsampling                       : 4:2:0
Bit depth                                : 8 bits
Bits/(Pixel*Frame)                       : 0.071
Stream size                              : 20.2 GiB (94%)

Audio
ID                                       : 220 (0xDC)
Menu ID                                  : 2 (0x2)
Format                                   : MPEG Audio
Format version                           : Version 1
Format profile                           : Layer 2
Codec ID                                 : 3
Duration                                 : 1h 37mn
Bit rate mode                            : Constant
Bit rate                                 : 192 Kbps
Channel(s)                               : 2 channels
Sampling rate                            : 48.0 KHz
Compression mode                         : Lossy
Delay relative to video                  : -1s 201ms
Stream size                              : 134 MiB (1%)

Download
***Hidden content cannot be quoted.***
Thank you very much!
 

xXIMANXx

Member
Registered
Oct 31, 2018
384
6
18
20
Linkin Park - O2 Berlin 2014 [UHD-2160p]


Setlist:

  1. Mashup Intro #2
    Guilty All the Same
    Given Up
    Points of Authority
    One Step Closer
    Blackout
    Papercut
    Rebellion
    Runaway
    Wastelands
    Castle of Glass
    Leave Out All the Rest / Shadow of the Day / Iridescent
    Robot Boy
    Joe Hahn Solo
    Burn It Down
    Waiting for the End
    Final Masquerade
    Wretches and Kings / Remember the Name
    Numb
    In the End
    Faint
    Lost in the Echo
    New Divide
    Crawling
    Until It's Gone
    What I've Done
    Bleed It Out
Code:
Format                                   : MPEG-TS
File size                                : 21.3 GiB
Duration                                 : 1h 37mn
Overall bit rate mode                    : Variable
Overall bit rate                         : 31.2 Mbps

Video
ID                                       : 210 (0xD2)
Menu ID                                  : 2 (0x2)
Format                                   : HEVC
Format/Info                              : High Efficiency Video Coding
Format profile                           : Main@L5.1@Main
Codec ID                                 : 36
Duration                                 : 1h 37mn
Bit rate                                 : 29.5 Mbps
Width                                    : 3 840 pixels
Height                                   : 2 160 pixels
Display aspect ratio                     : 16:9
Frame rate                               : 50.000 fps
Color space                              : YUV
Chroma subsampling                       : 4:2:0
Bit depth                                : 8 bits
Bits/(Pixel*Frame)                       : 0.071
Stream size                              : 20.2 GiB (94%)

Audio
ID                                       : 220 (0xDC)
Menu ID                                  : 2 (0x2)
Format                                   : MPEG Audio
Format version                           : Version 1
Format profile                           : Layer 2
Codec ID                                 : 3
Duration                                 : 1h 37mn
Bit rate mode                            : Constant
Bit rate                                 : 192 Kbps
Channel(s)                               : 2 channels
Sampling rate                            : 48.0 KHz
Compression mode                         : Lossy
Delay relative to video                  : -1s 201ms
Stream size                              : 134 MiB (1%)

Download
***Hidden content cannot be quoted.***
 

ridney

Member
Registered
Aug 12, 2019
56
2
8
45
Thanks
Linkin Park - O2 Berlin 2014 [UHD-2160p]


Setlist:

  1. Mashup Intro #2
    Guilty All the Same
    Given Up
    Points of Authority
    One Step Closer
    Blackout
    Papercut
    Rebellion
    Runaway
    Wastelands
    Castle of Glass
    Leave Out All the Rest / Shadow of the Day / Iridescent
    Robot Boy
    Joe Hahn Solo
    Burn It Down
    Waiting for the End
    Final Masquerade
    Wretches and Kings / Remember the Name
    Numb
    In the End
    Faint
    Lost in the Echo
    New Divide
    Crawling
    Until It's Gone
    What I've Done
    Bleed It Out
Code:
Format                                   : MPEG-TS
File size                                : 21.3 GiB
Duration                                 : 1h 37mn
Overall bit rate mode                    : Variable
Overall bit rate                         : 31.2 Mbps

Video
ID                                       : 210 (0xD2)
Menu ID                                  : 2 (0x2)
Format                                   : HEVC
Format/Info                              : High Efficiency Video Coding
Format profile                           : Main@L5.1@Main
Codec ID                                 : 36
Duration                                 : 1h 37mn
Bit rate                                 : 29.5 Mbps
Width                                    : 3 840 pixels
Height                                   : 2 160 pixels
Display aspect ratio                     : 16:9
Frame rate                               : 50.000 fps
Color space                              : YUV
Chroma subsampling                       : 4:2:0
Bit depth                                : 8 bits
Bits/(Pixel*Frame)                       : 0.071
Stream size                              : 20.2 GiB (94%)

Audio
ID                                       : 220 (0xDC)
Menu ID                                  : 2 (0x2)
Format                                   : MPEG Audio
Format version                           : Version 1
Format profile                           : Layer 2
Codec ID                                 : 3
Duration                                 : 1h 37mn
Bit rate mode                            : Constant
Bit rate                                 : 192 Kbps
Channel(s)                               : 2 channels
Sampling rate                            : 48.0 KHz
Compression mode                         : Lossy
Delay relative to video                  : -1s 201ms
Stream size                              : 134 MiB (1%)

Download
***Hidden content cannot be quoted.***
 

Vashisht1909

Member
Registered
Oct 15, 2019
60
1
8
22
Ninice

NNiicceic
Linkin Park - O2 Berlin 2014 [UHD-2160p]


Setlist:

  1. Mashup Intro #2
    Guilty All the Same
    Given Up
    Points of Authority
    One Step Closer
    Blackout
    Papercut
    Rebellion
    Runaway
    Wastelands
    Castle of Glass
    Leave Out All the Rest / Shadow of the Day / Iridescent
    Robot Boy
    Joe Hahn Solo
    Burn It Down
    Waiting for the End
    Final Masquerade
    Wretches and Kings / Remember the Name
    Numb
    In the End
    Faint
    Lost in the Echo
    New Divide
    Crawling
    Until It's Gone
    What I've Done
    Bleed It Out
Code:
Format                                   : MPEG-TS
File size                                : 21.3 GiB
Duration                                 : 1h 37mn
Overall bit rate mode                    : Variable
Overall bit rate                         : 31.2 Mbps

Video
ID                                       : 210 (0xD2)
Menu ID                                  : 2 (0x2)
Format                                   : HEVC
Format/Info                              : High Efficiency Video Coding
Format profile                           : Main@L5.1@Main
Codec ID                                 : 36
Duration                                 : 1h 37mn
Bit rate                                 : 29.5 Mbps
Width                                    : 3 840 pixels
Height                                   : 2 160 pixels
Display aspect ratio                     : 16:9
Frame rate                               : 50.000 fps
Color space                              : YUV
Chroma subsampling                       : 4:2:0
Bit depth                                : 8 bits
Bits/(Pixel*Frame)                       : 0.071
Stream size                              : 20.2 GiB (94%)

Audio
ID                                       : 220 (0xDC)
Menu ID                                  : 2 (0x2)
Format                                   : MPEG Audio
Format version                           : Version 1
Format profile                           : Layer 2
Codec ID                                 : 3
Duration                                 : 1h 37mn
Bit rate mode                            : Constant
Bit rate                                 : 192 Kbps
Channel(s)                               : 2 channels
Sampling rate                            : 48.0 KHz
Compression mode                         : Lossy
Delay relative to video                  : -1s 201ms
Stream size                              : 134 MiB (1%)

Download
***Hidden content cannot be quoted.***