1. If this is your first visit, be sure to check out the FAQ by clicking the link above. You may have to register before you can access the full forum. Follow the link above to Register. To start viewing messages, select the forum that you want to visit from the selection below.
    Dismiss Notice

FEED Little Mix & Fleur East - Black Magic, Sax (The X Factor UK 2015) [FEED-1080i]-HDMania

Discussion in 'Live Performances & Concerts' started by NCURBAN, Jun 26, 2016.

  1. NCURBAN

    NCURBAN Well-Known Member Administrative

    Joined:
    May 25, 2016
    Messages:
    2,857
    Likes Received:
    1,249
    Trophy Points:
    113
    Little Mix & Fleur East - Black Magic, Sax (The X Factor UK 2015) [FEED-1080i]-HDMania

    [​IMG]

    Code:
    Format                                   : MPEG-TS
    File size                                : 1.41 GiB
    Duration                                 : 6mn 31s
    Overall bit rate mode                    : Variable
    Overall bit rate                         : 30.9 Mbps
    
    Video
    ID                                       : 300 (0x12C)
    Menu ID                                  : 1 (0x1)
    Format                                   : AVC
    Format/Info                              : Advanced Video Codec
    Format profile                           : High@L4.1
    Format settings, CABAC                   : Yes
    Format settings, ReFrames                : 4 frames
    Codec ID                                 : 27
    Duration                                 : 6mn 31s
    Bit rate                                 : 28.8 Mbps
    Width                                    : 1 920 pixels
    Height                                   : 1 080 pixels
    Display aspect ratio                     : 16:9
    Frame rate                               : 25.000 fps
    Color space                              : YUV
    Chroma subsampling                       : 4:2:0
    Bit depth                                : 8 bits
    Scan type                                : Interlaced
    Scan order                               : Top Field First
    Bits/(Pixel*Frame)                       : 0.556
    Stream size                              : 1.31 GiB (93%)
    Color range                              : Limited
    Color primaries                          : BT.709
    Transfer characteristics                 : BT.709
    Matrix coefficients                      : BT.709
    
    Audio #1
    ID                                       : 301 (0x12D)
    Menu ID                                  : 1 (0x1)
    Format                                   : MPEG Audio
    Format version                           : Version 1
    Format profile                           : Layer 2
    Mode                                     : Dual mono
    Codec ID                                 : 3
    Duration                                 : 6mn 31s
    Bit rate mode                            : Constant
    Bit rate                                 : 256 Kbps
    Channel(s)                               : 2 channels
    Sampling rate                            : 48.0 KHz
    Compression mode                         : Lossy
    Delay relative to video                  : 22ms
    Stream size                              : 12.0 MiB (1%)
    Language                                 : English
    
    Audio #2
    ID                                       : 302 (0x12E)
    Menu ID                                  : 1 (0x1)
    Format                                   : MPEG Audio
    Format version                           : Version 1
    Format profile                           : Layer 2
    Mode                                     : Dual mono
    Codec ID                                 : 3
    Duration                                 : 6mn 31s
    Bit rate mode                            : Constant
    Bit rate                                 : 256 Kbps
    Channel(s)                               : 2 channels
    Sampling rate                            : 48.0 KHz
    Compression mode                         : Lossy
    Delay relative to video                  : 22ms
    Stream size                              : 12.0 MiB (1%)
    Language                                 : English
    
    Menu
    ID                                       : 32 (0x20)
    Menu ID                                  : 1 (0x1)
    Duration                                 : 6mn 31s
    List                                     : 300 (0x12C) (AVC) / 301 (0x12D) (MPEG Audio, English) / 302 (0x12E) (MPEG Audio, English)
    Language                                 :  / English / English
    Maximum bit rate                         : 200000000

    Download
    Hidden Content:
    You must reply before you can see the hidden data contained here.
     
  2. Loading...