HDTV Little Mix - Shout Out to My Ex (NBC Today 2016) [HDTV-1080i]

NCURBAN

Well-Known Member
Administrative
May 25, 2016
3,347
3,893
113
Little Mix - Shout Out to My Ex (NBC Today 2016) [HDTV-1080i]


Gener: Pop
At: NBC Today
Date: 15 Dec, 2016
Code:
Format                                   : MPEG-TS
File size                                : 164 MiB
Duration                                 : 4 min 18 s
Overall bit rate mode                    : Variable
Overall bit rate                         : 5 315 kb/s

Video
ID                                       : 833 (0x341)
Menu ID                                  : 1 (0x1)
Format                                   : AVC
Format/Info                              : Advanced Video Codec
Format profile                           : High@L4
Format settings, CABAC                   : Yes
Format settings, ReFrames                : 4 frames
Codec ID                                 : 27
Duration                                 : 4 min 18 s
Bit rate                                 : 4 664 kb/s
Width                                    : 1 920 pixels
Height                                   : 1 080 pixels
Display aspect ratio                     : 16:9
Frame rate                               : 25.000 FPS
Color space                              : YUV
Chroma subsampling                       : 4:2:0
Bit depth                                : 8 bits
Scan type                                : MBAFF
Scan type, store method                  : Interleaved fields
Scan order                               : Top Field First
Bits/(Pixel*Frame)                       : 0.090
Stream size                              : 144 MiB (88%)

Audio
ID                                       : 835 (0x343)
Menu ID                                  : 1 (0x1)
Format                                   : AC-3
Format/Info                              : Audio Coding 3
Mode extension                           : CM (complete main)
Format settings, Endianness              : Big
Codec ID                                 : 6
Duration                                 : 4 min 18 s
Bit rate mode                            : Constant
Bit rate                                 : 384 kb/s
Channel(s)                               : 2 channels
Channel positions                        : Front: L R
Sampling rate                            : 48.0 kHz
Frame rate                               : 31.250 FPS (1536 spf)
Bit depth                                : 16 bits
Compression mode                         : Lossy
Stream size                              : 11.8 MiB (7%)
Language                                 : English

Download
You must reply before you can see the hidden data contained here.