HDTV Little Mix - Shout Out To My Ex (X Factor 2016) (HDTV-1080i)

NCURBAN

Well-Known Member
Administrative
May 25, 2016
3,360
4,185
113
Little Mix - Shout Out To My Ex (X Factor 2016) (HDTV-1080i)



Code:
Format                                   : Matroska
Format version                           : Version 4 / Version 2
File size                                : 320 MiB
Duration                                 : 6mn 13s
Overall bit rate                         : 7 176 Kbps
Movie name                               : Little Mix: Shout Out To My Ex (X Factor 16/10/16) (1080i) (HDTV) – (T.B.P.W)
Encoded date                             : UTC 2016-10-16 19:41:05
Writing application                      : mkvmerge v7.3.0 ('Nouages') 64bit built on Oct 22 2014 18:53:34
Writing library                          : libebml v1.3.0 + libmatroska v1.4.1
DURATION                                 : 00:06:13.536000000
NUMBER_OF_FRAMES                         : 11673
NUMBER_OF_BYTES                          : 8964864
_STATISTICS_WRITING_APP                  : mkvmerge v7.3.0 ('Nouages') 64bit built on Oct 22 2014 18:53:34
_STATISTICS_WRITING_DATE_UTC             : 2016-10-16 19:41:05
_STATISTICS_TAGS                         : BPS DURATION NUMBER_OF_FRAMES NUMBER_OF_BYTES

Video
ID                                       : 1
Format                                   : AVC
Format/Info                              : Advanced Video Codec
Format profile                           : Main@L4
Format settings, CABAC                   : Yes
Format settings, ReFrames                : 4 frames
Codec ID                                 : V_MPEG4/ISO/AVC
Duration                                 : 6mn 13s
Bit rate                                 : 6 841 Kbps
Width                                    : 1 920 pixels
Height                                   : 1 080 pixels
Display aspect ratio                     : 16:9
Frame rate mode                          : Constant
Frame rate                               : 25.000 fps
Standard                                 : Component
Color space                              : YUV
Chroma subsampling                       : 4:2:0
Bit depth                                : 8 bits
Scan type                                : MBAFF
Scan order                               : Top Field First
Bits/(Pixel*Frame)                       : 0.132
Stream size                              : 305 MiB (95%)
Title                                    : Little Mix: Shout Out To My Ex (X Factor 16/10/16) (1080i) (HDTV) – (T.B.P.W)
Language                                 : English
Default                                  : Yes
Forced                                   : Yes
Color range                              : Limited
Color primaries                          : BT.709
Transfer characteristics                 : BT.709
Matrix coefficients                      : BT.709

Audio
ID                                       : 2
Format                                   : AC-3
Format/Info                              : Audio Coding 3
Mode extension                           : CM (complete main)
Format settings, Endianness              : Big
Codec ID                                 : A_AC3
Duration                                 : 6mn 13s
Bit rate mode                            : Constant
Bit rate                                 : 192 Kbps
Channel(s)                               : 2 channels
Channel positions                        : Front: L R
Sampling rate                            : 48.0 KHz
Compression mode                         : Lossy
Stream size                              : 8.55 MiB (3%)
Title                                    : DD2.0
Language                                 : English
Default                                  : Yes
Forced                                   : Yes

Download
You must reply before you can see the hidden data contained here.