HDTV MØ - Final Song (The Tonight Show Starring Jimmy Fallon 2016) [HDTV-1080i]-dylwys

NCURBAN

Well-Known Member
Administrative
May 25, 2016
3,347
3,634
113
MØ - Final Song (The Tonight Show Starring Jimmy Fallon 2016) [HDTV-1080i]-dylwys


Code:
Format                                   : MPEG-TS
File size                                : 491 MiB
Duration                                 : 6mn 20s
Overall bit rate mode                    : Variable
Overall bit rate                         : 10.8 Mbps

Video
ID                                       : 5411 (0x1523)
Menu ID                                  : 10376 (0x2888)
Format                                   : AVC
Format/Info                              : Advanced Video Codec
Format profile                           : High@L4
Format settings, CABAC                   : Yes
Format settings, ReFrames                : 4 frames
Codec ID                                 : 27
Duration                                 : 6mn 20s
Bit rate                                 : 9 463 Kbps
Width                                    : 1 280 pixels
Height                                   : 720 pixels
Display aspect ratio                     : 16:9
Frame rate                               : 50.000 fps
Color space                              : YUV
Chroma subsampling                       : 4:2:0
Bit depth                                : 8 bits
Scan type                                : Progressive
Bits/(Pixel*Frame)                       : 0.205
Stream size                              : 429 MiB (87%)

Audio #1
ID                                       : 5412 (0x1524)
Menu ID                                  : 10376 (0x2888)
Format                                   : MPEG Audio
Format version                           : Version 1
Format profile                           : Layer 2
Codec ID                                 : 3
Duration                                 : 6mn 20s
Bit rate mode                            : Constant
Bit rate                                 : 192 Kbps
Channel(s)                               : 2 channels
Sampling rate                            : 48.0 KHz
Compression mode                         : Lossy
Delay relative to video                  : 66ms
Stream size                              : 8.70 MiB (2%)
Language                                 : Germay

Download
[HIDE-REPLY]MEGA[/HIDE-REPLY]