HDTV MØ - Later with Jools Holland 2016 (1080i-HDTV)

NCURBAN

Well-Known Member
Administrative
May 25, 2016
3,347
3,892
113
MØ - Final Song (Later with Jools Holland 2016) [1080i-HDTV]

You must reply before you can see the hidden data contained here.
MØ - Drum (Later with Jools Holland 2016) [1080i-HDTV]

You must reply before you can see the hidden data contained here.
MØ - Lean On (Later with Jools Holland 2016) [1080i-HDTV]

You must reply before you can see the hidden data contained here.
Code:
Format                                   : MPEG-TS
File size                                : 221 MiB
Duration                                 : 4 min 24 s
Overall bit rate mode                    : Variable
Overall bit rate                         : 7 022 kb/s

Video
ID                                       : 5500 (0x157C)
Menu ID                                  : 1 (0x1)
Format                                   : AVC
Format/Info                              : Advanced Video Codec
Format profile                           : High@L4
Format settings, CABAC                   : Yes
Format settings, ReFrames                : 4 frames
Format settings, GOP                     : M=8, N=24
Codec ID                                 : 27
Duration                                 : 4 min 23 s
Bit rate                                 : 6 288 kb/s
Width                                    : 1 920 pixels
Height                                   : 1 080 pixels
Display aspect ratio                     : 16:9
Frame rate                               : 25.000 FPS
Standard                                 : Component
Color space                              : YUV
Chroma subsampling                       : 4:2:0
Bit depth                                : 8 bits
Scan type                                : Interlaced
Scan type, store method                  : Separated fields
Scan order                               : Top Field First
Bits/(Pixel*Frame)                       : 0.121
Stream size                              : 198 MiB (89%)
Color range                              : Limited
Color primaries                          : BT.709
Transfer characteristics                 : BT.709
Matrix coefficients                      : BT.709

Audio
ID                                       : 5501 (0x157D)
Menu ID                                  : 1 (0x1)
Format                                   : AC-3
Format/Info                              : Audio Coding 3
Mode extension                           : CM (complete main)
Format settings, Endianness              : Big
Codec ID                                 : 6
Duration                                 : 4 min 23 s
Bit rate mode                            : Constant
Bit rate                                 : 384 kb/s
Channel(s)                               : 6 channels
Channel positions                        : Front: L C R, Side: L R, LFE
Sampling rate                            : 48.0 kHz
Frame rate                               : 31.250 FPS (1536 spf)
Bit depth                                : 16 bits
Compression mode                         : Lossy
Stream size                              : 12.1 MiB (5%)
Language                                 : English
 

kotaksuara

New Member
Registered
Aug 27, 2017
1
0
1
29
MØ - Final Song (Later with Jools Holland 2016) [1080i-HDTV]

***Hidden content cannot be quoted.***
MØ - Drum (Later with Jools Holland 2016) [1080i-HDTV]

***Hidden content cannot be quoted.***

MØ - Lean On (Later with Jools Holland 2016) [1080i-HDTV]

***Hidden content cannot be quoted.***
Code:
Format                                   : MPEG-TS
File size                                : 221 MiB
Duration                                 : 4 min 24 s
Overall bit rate mode                    : Variable
Overall bit rate                         : 7 022 kb/s

Video
ID                                       : 5500 (0x157C)
Menu ID                                  : 1 (0x1)
Format                                   : AVC
Format/Info                              : Advanced Video Codec
Format profile                           : High@L4
Format settings, CABAC                   : Yes
Format settings, ReFrames                : 4 frames
Format settings, GOP                     : M=8, N=24
Codec ID                                 : 27
Duration                                 : 4 min 23 s
Bit rate                                 : 6 288 kb/s
Width                                    : 1 920 pixels
Height                                   : 1 080 pixels
Display aspect ratio                     : 16:9
Frame rate                               : 25.000 FPS
Standard                                 : Component
Color space                              : YUV
Chroma subsampling                       : 4:2:0
Bit depth                                : 8 bits
Scan type                                : Interlaced
Scan type, store method                  : Separated fields
Scan order                               : Top Field First
Bits/(Pixel*Frame)                       : 0.121
Stream size                              : 198 MiB (89%)
Color range                              : Limited
Color primaries                          : BT.709
Transfer characteristics                 : BT.709
Matrix coefficients                      : BT.709

Audio
ID                                       : 5501 (0x157D)
Menu ID                                  : 1 (0x1)
Format                                   : AC-3
Format/Info                              : Audio Coding 3
Mode extension                           : CM (complete main)
Format settings, Endianness              : Big
Codec ID                                 : 6
Duration                                 : 4 min 23 s
Bit rate mode                            : Constant
Bit rate                                 : 384 kb/s
Channel(s)                               : 6 channels
Channel positions                        : Front: L C R, Side: L R, LFE
Sampling rate                            : 48.0 kHz
Frame rate                               : 31.250 FPS (1536 spf)
Bit depth                                : 16 bits
Compression mode                         : Lossy
Stream size                              : 12.1 MiB (5%)
Language                                 : English
MØ - Final Song (Later with Jools Holland 2016) [1080i-HDTV]

***Hidden content cannot be quoted.***
MØ - Drum (Later with Jools Holland 2016) [1080i-HDTV]

***Hidden content cannot be quoted.***

MØ - Lean On (Later with Jools Holland 2016) [1080i-HDTV]

***Hidden content cannot be quoted.***
Code:
Format                                   : MPEG-TS
File size                                : 221 MiB
Duration                                 : 4 min 24 s
Overall bit rate mode                    : Variable
Overall bit rate                         : 7 022 kb/s

Video
ID                                       : 5500 (0x157C)
Menu ID                                  : 1 (0x1)
Format                                   : AVC
Format/Info                              : Advanced Video Codec
Format profile                           : High@L4
Format settings, CABAC                   : Yes
Format settings, ReFrames                : 4 frames
Format settings, GOP                     : M=8, N=24
Codec ID                                 : 27
Duration                                 : 4 min 23 s
Bit rate                                 : 6 288 kb/s
Width                                    : 1 920 pixels
Height                                   : 1 080 pixels
Display aspect ratio                     : 16:9
Frame rate                               : 25.000 FPS
Standard                                 : Component
Color space                              : YUV
Chroma subsampling                       : 4:2:0
Bit depth                                : 8 bits
Scan type                                : Interlaced
Scan type, store method                  : Separated fields
Scan order                               : Top Field First
Bits/(Pixel*Frame)                       : 0.121
Stream size                              : 198 MiB (89%)
Color range                              : Limited
Color primaries                          : BT.709
Transfer characteristics                 : BT.709
Matrix coefficients                      : BT.709

Audio
ID                                       : 5501 (0x157D)
Menu ID                                  : 1 (0x1)
Format                                   : AC-3
Format/Info                              : Audio Coding 3
Mode extension                           : CM (complete main)
Format settings, Endianness              : Big
Codec ID                                 : 6
Duration                                 : 4 min 23 s
Bit rate mode                            : Constant
Bit rate                                 : 384 kb/s
Channel(s)                               : 6 channels
Channel positions                        : Front: L C R, Side: L R, LFE
Sampling rate                            : 48.0 kHz
Frame rate                               : 31.250 FPS (1536 spf)
Bit depth                                : 16 bits
Compression mode                         : Lossy
Stream size                              : 12.1 MiB (5%)
Language                                 : English
 

pianotshs

New Member
Registered
Oct 11, 2019
11
0
1
26
thank you so much!
MØ - Final Song (Later with Jools Holland 2016) [1080i-HDTV]

***Hidden content cannot be quoted.***
MØ - Drum (Later with Jools Holland 2016) [1080i-HDTV]

***Hidden content cannot be quoted.***

MØ - Lean On (Later with Jools Holland 2016) [1080i-HDTV]

***Hidden content cannot be quoted.***
Code:
Format                                   : MPEG-TS
File size                                : 221 MiB
Duration                                 : 4 min 24 s
Overall bit rate mode                    : Variable
Overall bit rate                         : 7 022 kb/s

Video
ID                                       : 5500 (0x157C)
Menu ID                                  : 1 (0x1)
Format                                   : AVC
Format/Info                              : Advanced Video Codec
Format profile                           : High@L4
Format settings, CABAC                   : Yes
Format settings, ReFrames                : 4 frames
Format settings, GOP                     : M=8, N=24
Codec ID                                 : 27
Duration                                 : 4 min 23 s
Bit rate                                 : 6 288 kb/s
Width                                    : 1 920 pixels
Height                                   : 1 080 pixels
Display aspect ratio                     : 16:9
Frame rate                               : 25.000 FPS
Standard                                 : Component
Color space                              : YUV
Chroma subsampling                       : 4:2:0
Bit depth                                : 8 bits
Scan type                                : Interlaced
Scan type, store method                  : Separated fields
Scan order                               : Top Field First
Bits/(Pixel*Frame)                       : 0.121
Stream size                              : 198 MiB (89%)
Color range                              : Limited
Color primaries                          : BT.709
Transfer characteristics                 : BT.709
Matrix coefficients                      : BT.709

Audio
ID                                       : 5501 (0x157D)
Menu ID                                  : 1 (0x1)
Format                                   : AC-3
Format/Info                              : Audio Coding 3
Mode extension                           : CM (complete main)
Format settings, Endianness              : Big
Codec ID                                 : 6
Duration                                 : 4 min 23 s
Bit rate mode                            : Constant
Bit rate                                 : 384 kb/s
Channel(s)                               : 6 channels
Channel positions                        : Front: L C R, Side: L R, LFE
Sampling rate                            : 48.0 kHz
Frame rate                               : 31.250 FPS (1536 spf)
Bit depth                                : 16 bits
Compression mode                         : Lossy
Stream size                              : 12.1 MiB (5%)
Language                                 : English