HDTV MØ - Lollapalooza Brazil 2017 (HDTV-1080i)-shipahead

NCURBAN

Well-Known Member
Administrative
May 25, 2016
3,347
3,859
113
MØ - Lollapalooza Brazil 2017 (HDTV-1080i)-shipahead


Gener: Pop
Festival: Lollapalooza Brazil
Live At: Autódromo de Interlagos, São Paulo, Brazil
Date: March 26, 2017
Setlist:
  1. Don't Wanna Dance
  2. Waste of Time
  3. Slow Love
  4. Kamikaze
  5. Riot Gal
  6. All I Do
  7. One More (Elliphant cover)
  8. Maiden
  9. Pilgrim
  10. Drum
  11. Cold Water (Major Lazer cover)
  12. Glass
  13. Final Song
  14. Don't Leave (Snakehips & MØ cover)
  15. Lean On (Major Lazer cover)
Code:
Format                                   : MPEG-TS
File size                                : 3.58 GiB
Duration                                 : 55 min 8 s
Overall bit rate mode                    : Variable
Overall bit rate                         : 9 295 kb/s

Video
ID                                       : 512 (0x200)
Menu ID                                  : 1 (0x1)
Format                                   : AVC
Format/Info                              : Advanced Video Codec
Format profile                           : High@L4
Format settings, CABAC                   : Yes
Format settings, ReFrames                : 4 frames
Codec ID                                 : 27
Duration                                 : 55 min 7 s
Bit rate                                 : 8 577 kb/s
Width                                    : 1 920 pixels
Height                                   : 1 080 pixels
Display aspect ratio                     : 16:9
Frame rate                               : 29.970 (30000/1001) FPS
Standard                                 : Component
Color space                              : YUV
Chroma subsampling                       : 4:2:0
Bit depth                                : 8 bits
Scan type                                : MBAFF
Scan type, store method                  : Interleaved fields
Scan order                               : Top Field First
Bits/(Pixel*Frame)                       : 0.138
Stream size                              : 3.30 GiB (92%)
Color range                              : Limited
Color primaries                          : BT.709
Transfer characteristics                 : BT.709
Matrix coefficients                      : BT.709

Audio
ID                                       : 513 (0x201)
Menu ID                                  : 1 (0x1)
Format                                   : MPEG Audio
Format version                           : Version 1
Format profile                           : Layer 2
Mode                                     : Joint stereo
Mode extension                           : Intensity Stereo + MS Stereo
Codec ID                                 : 3
Duration                                 : 55 min 7 s
Bit rate mode                            : Constant
Bit rate                                 : 256 kb/s
Channel(s)                               : 2 channels
Sampling rate                            : 48.0 kHz
Compression mode                         : Lossy
Stream size                              : 101 MiB (3%)
Download
You must reply before you can see the hidden data contained here.