FEED MØ - Roskilde Festival 2016 (FEED-1080i)-HDMania

NCURBAN

Well-Known Member
Administrative
May 25, 2016
3,358
4,096
113
MØ - Roskilde Festival 2016 (FEED-1080i)-HDMania


Setlist:
  1. Don't Wanna Dance
  2. The Sea
  3. Waste of Time
  4. Slow Love
  5. Freedom (#1)
  6. One More (feat. Josefine Struckmann) [Elliphant cover]
  7. (Unknown)
  8. Goodbye
  9. New Year's Eve
  10. Walk This Way
  11. Gone and Found
  12. Maiden
  13. Kamikaze
  14. Lost (Frank Ocean cover)
  15. Fire Rides (with Kwamie Liv)
  16. Glass
  17. True Romance
  18. Final Song
  19. Pilgrim
  20. Lean On (Major Lazer cover)
Code:
Format                                   : MPEG-TS
File size                                : 1.60 GiB
Duration                                 : 14mn 27s
Overall bit rate                         : 15.8 Mbps

Video
ID                                       : 512 (0x200)
Menu ID                                  : 1 (0x1)
Format                                   : AVC
Format/Info                              : Advanced Video Codec
Format profile                           : High@L4.1
Format settings, CABAC                   : Yes
Format settings, ReFrames                : 4 frames
Codec ID                                 : 27
Duration                                 : 14mn 27s
Bit rate                                 : 14.3 Mbps
Width                                    : 1 920 pixels
Height                                   : 1 080 pixels
Display aspect ratio                     : 16:9
Frame rate                               : 25.000 fps
Color space                              : YUV
Chroma subsampling                       : 4:2:0
Bit depth                                : 8 bits
Scan type                                : Interlaced
Scan order                               : Top Field First
Bits/(Pixel*Frame)                       : 0.275
Stream size                              : 1.44 GiB (90%)
Color range                              : Limited
Color primaries                          : BT.709
Transfer characteristics                 : BT.709
Matrix coefficients                      : BT.709

Audio #1
ID                                       : 4112 (0x1010)
Menu ID                                  : 1 (0x1)
Format                                   : MPEG Audio
Format version                           : Version 1
Format profile                           : Layer 2
Codec ID                                 : 3
Duration                                 : 14mn 27s
Bit rate mode                            : Constant
Bit rate                                 : 384 Kbps
Channel(s)                               : 2 channels
Sampling rate                            : 48.0 KHz
Compression mode                         : Lossy
Delay relative to video                  : 110ms
Stream size                              : 39.7 MiB (2%)
Language                                 : one

Audio #2
ID                                       : 4128 (0x1020)
Menu ID                                  : 1 (0x1)
Format                                   : MPEG Audio
Format version                           : Version 1
Format profile                           : Layer 2
Codec ID                                 : 3
Duration                                 : 14mn 27s
Bit rate mode                            : Constant
Bit rate                                 : 384 Kbps
Channel(s)                               : 2 channels
Sampling rate                            : 48.0 KHz
Compression mode                         : Lossy
Delay relative to video                  : 30ms
Stream size                              : 39.7 MiB (2%)
Language                                 : two

Menu
ID                                       : 32 (0x20)
Menu ID                                  : 1 (0x1)
List                                     : 512 (0x200) (AVC) / 4112 (0x1010) (MPEG Audio, one) / 4128 (0x1020) (MPEG Audio, two)
Language                                 :  / one / two
Maximum bit rate                         : 200000000

Download
[HIDE-REPLY]MEGA[/HIDE-REPLY]